Начать новую тему Ответить на тему
Статистика раздачи
Размер: 420.94 МБ | Добавлен: 26 июн 2020, 19:54 | Скачали: 0
Сидеров: 0  [0 байт/сек]    Личеров: 0  [0 байт/сек]
Пред. тема | След. тема 

Автор
Сообщение

СообщениеДобавлено: 26 июн 2020, 19:54 

Ответить с цитатой 

Liquid Divine - Autophobia
Жанр: electro industrial
Год выпуска диска: 2009
Производитель диска: (Infacted Recordings, Germany)
Аудио кодек: FLAC
Тип рипа: image+.cue
Битрейт аудио: lossless
Продолжительность: 1:00:21.00
Трэклист:
01. Fallen Men [5:10]
02. Planet Zoo [3:57]
03. Sojourner (feat. Frank M. Spinath) [5:14]
04. Ghost [4:32]
05. iHuman [6:14]
06. Cocoon [4:33]
07. Frontend [5:40]
08. Comagirl (feat. Yrea) [4:51]
09. Astronauts [4:10]
10. Want [3:59]
11. Redshift [4:10]
12. One Day Of May In '99 [7:50]
Источник: Физический носитель
Код:
Exact Audio Copy V0.99 prebeta 5 from 4. May 2009
Отчёт EAC об извлечении, выполненном 7. мая 2010, 16:34
Liquid Divine / Autophobia
Дисковод: Optiarc DVD RW AD-7173A   Adapter: 0  ID: 0
Режим чтения                 : Достоверность
Использование точного потока : Да
Отключение кэша аудио        : Да
Использование указателей C2  : Нет
Коррекция смещения при чтении                     : 48
Способность читать области Lead-in и Lead-out     : Нет
Заполнение пропущенных сэмплов тишиной            : Да
Удаление блоков с тишиной в начале и конце        : Нет
При вычислениях CRC использовались нулевые сэмплы : Да
Интерфейс                                         : Установленный внешний ASPI-интерфейс
Выходной формат          : Пользовательский кодировщик
Выбранный битрейт        : 1024 kBit/s
Качество                 : Высокий
Добавление ID3-тэга      : Нет
Утилита сжатия           : C:\Program Files\Exact Audio Copy\Flac\flac.exe
Дополнительные параметры : -6 -V -T "ARTIST=%a" -T "TITLE=%t" -T "ALBUM=%g" -T "DATE=%y" -T "TRACKNUMBER=%n" -T "GENRE=%m" -T "COMMENT=%e" %s -o %d
TOC извлечённого CD
     Трек |   Старт  | Длительность | Начальный сектор | Конечный сектор
    ---------------------------------------------------------------------
       1  |  0:00.00 |    5:09.73   |           0      |      23247
       2  |  5:09.73 |    3:57.20   |       23248      |      41042
       3  |  9:07.18 |    5:14.36   |       41043      |      64628
       4  | 14:21.54 |    4:32.34   |       64629      |      85062
       5  | 18:54.13 |    6:13.41   |       85063      |     113078
       6  | 25:07.54 |    4:33.27   |      113079      |     133580
       7  | 29:41.06 |    5:40.06   |      133581      |     159086
       8  | 35:21.12 |    4:50.72   |      159087      |     180908
       9  | 40:12.09 |    4:09.72   |      180909      |     199655
      10  | 44:22.06 |    3:59.07   |      199656      |     217587
      11  | 48:21.13 |    4:09.72   |      217588      |     236334
      12  | 52:31.10 |    7:49.65   |      236335      |     271574
Характеристики диапазона извлечения и сообщения об ошибках
Выбранный диапазон
     Имя файла H:\СКАЧКА\FLAC\1 TORRENT\Liquid Divine - Autophobia.wav
     Пиковый уровень 99.2 %
     Качество диапазона 99.9 %
     CRC копии CB59860F
     Копирование... OK
Ошибок не произошло
AccurateRip: сводка
Трек  1  нет в базе данных
Трек  2  нет в базе данных
Трек  3  нет в базе данных
Трек  4  нет в базе данных
Трек  5  нет в базе данных
Трек  6  нет в базе данных
Трек  7  нет в базе данных
Трек  8  нет в базе данных
Трек  9  нет в базе данных
Трек 10  нет в базе данных
Трек 11  нет в базе данных
Трек 12  нет в базе данных
Ни одного трека нет в базе AccurateRip
Конец отчёта
Хочешь скачать, но не можешь из-за отсутствия сидов - пиши в личку!
Правила, инструкции, FAQ!!!
Торрент  Добавлен [26 июн 2020, 19:54] Скачать торрент Магнет ссылка
Скачать торрент
[ Размер 17.39 КБ / Просмотров 7 ]

Статус
Проверен 
 
Размер  420.94 МБ
Приватный: Нет (DHT включён)
.torrent скачан  0
 


     Отправить личное сообщение
   
Страница 1 из 1
Показать сообщения за:  Поле сортировки  
Начать новую тему Ответить на тему


Сейчас этот форум просматривают: нет зарегистрированных пользователей и гости: 0


Вы не можете начинать темы
Вы не можете отвечать на сообщения
Вы не можете редактировать свои сообщения
Вы не можете удалять свои сообщения
Вы не можете добавлять вложения

Перейти:  
cron