Начать новую тему Ответить на тему
Статистика раздачи
Размер: 374.17 МБ | Добавлен: 26 июн 2020, 17:50 | Скачали: 0
Сидеров: 0  [0 байт/сек]    Личеров: 0  [0 байт/сек]
Пред. тема | След. тема 

Автор
Сообщение

СообщениеДобавлено: 26 июн 2020, 17:50 

Ответить с цитатой 

Level / Denial
Жанр: electro industrial
Страна-производитель диска: USA
Год издания диска: 2003
Издатель (лейбл): Flaming Fish Music
Номер по каталогу: FFMCD032
Аудиокодек: FLAC (*.flac)
Тип рипа: image+.cue
Битрейт аудио: lossless
Продолжительность: 55:44.58
Источник (релизер): Физический носитель
Наличие сканов в содержимом раздачи: да
Треклист:
01. End Title [5:36]
02. Open Mind [4:38]
03. I.E.L.I. [4:40]
04. A Satisfaction [4:45]
05. Restore [4:31]
06. Mirror [6:12]
07. Home [3:56]
08. What Free Is [7:30]
09. Hold It In [7:40]
10. Decide [6:18]
Код:
Exact Audio Copy V0.99 prebeta 5 from 4. May 2009
Отчёт EAC об извлечении, выполненном 3. августа 2011, 15:04
Level / Denial
Дисковод: _NEC    DVD_RW ND-3520A   Adapter: 0  ID: 1
Режим чтения                 : Достоверность
Использование точного потока : Да
Отключение кэша аудио        : Да
Использование указателей C2  : Нет
Коррекция смещения при чтении                     : 48
Способность читать области Lead-in и Lead-out     : Нет
Заполнение пропущенных сэмплов тишиной            : Да
Удаление блоков с тишиной в начале и конце        : Нет
При вычислениях CRC использовались нулевые сэмплы : Да
Интерфейс                                         : Установленный внешний ASPI-интерфейс
Выходной формат          : Пользовательский кодировщик
Выбранный битрейт        : 1024 kBit/s
Качество                 : Высокий
Добавление ID3-тэга      : Нет
Утилита сжатия           : C:\Program Files\Exact Audio Copy\flac.exe
Дополнительные параметры : -6 -V -T "ARTIST=%a" -T "TITLE=%t" -T "ALBUM=%g" -T "DATE=%y" -T "TRACKNUMBER=%n" -T "GENRE=%m" -T "COMMENT=%e" %s -o %d
TOC извлечённого CD
     Трек |   Старт  | Длительность | Начальный сектор | Конечный сектор
    ---------------------------------------------------------------------
       1  |  0:00.00 |    5:35.69   |           0      |      25193
       2  |  5:35.69 |    4:38.01   |       25194      |      46044
       3  | 10:13.70 |    4:39.44   |       46045      |      67013
       4  | 14:53.39 |    4:44.70   |       67014      |      88383
       5  | 19:38.34 |    4:30.40   |       88384      |     108673
       6  | 24:08.74 |    6:11.39   |      108674      |     136537
       7  | 30:20.38 |    3:55.65   |      136538      |     154227
       8  | 34:16.28 |    7:30.01   |      154228      |     187978
       9  | 41:46.29 |    7:40.20   |      187979      |     222498
      10  | 49:26.49 |    6:18.09   |      222499      |     250857
Характеристики диапазона извлечения и сообщения об ошибках
Выбранный диапазон
     Имя файла O:\На трекер\Level - Denial.wav
     Пиковый уровень 100.0 %
     Качество диапазона 99.8 %
     CRC теста 033AC0AB
     CRC копии 033AC0AB
     Копирование... OK
Ошибок не произошло
AccurateRip: сводка
Трек  1  точное извлечение (доверие 2)  [990C8022]
Трек  2  точное извлечение (доверие 2)  [7AC7BFCF]
Трек  3  точное извлечение (доверие 2)  [6B8FBA37]
Трек  4  точное извлечение (доверие 2)  [5BF595F1]
Трек  5  точное извлечение (доверие 2)  [F41004BC]
Трек  6  точное извлечение (доверие 2)  [AE697F5F]
Трек  7  точное извлечение (доверие 2)  [55CDA1A3]
Трек  8  точное извлечение (доверие 2)  [1AE93F7B]
Трек  9  точное извлечение (доверие 2)  [B151CBCD]
Трек 10  точное извлечение (доверие 2)  [F3508BB7]
Все треки извлечены точно
Конец отчёта
Правила, инструкции, FAQ!!!
Торрент  Добавлен [26 июн 2020, 17:50] Скачать торрент Магнет ссылка
Скачать торрент
[ Размер 15.65 КБ / Просмотров 9 ]

Статус
Проверен 
 
Размер  374.17 МБ
Приватный: Нет (DHT включён)
.torrent скачан  0
 


     Отправить личное сообщение
   
Страница 1 из 1
Показать сообщения за:  Поле сортировки  
Начать новую тему Ответить на тему


Сейчас этот форум просматривают: нет зарегистрированных пользователей и гости: 0


Вы не можете начинать темы
Вы не можете отвечать на сообщения
Вы не можете редактировать свои сообщения
Вы не можете удалять свои сообщения
Вы не можете добавлять вложения

Перейти:  
cron