Начать новую тему Ответить на тему
Статистика раздачи
Размер: 525.18 МБ | Добавлен: 26 июн 2020, 16:59 | Скачали: 0
Сидеров: 0  [0 байт/сек]    Личеров: 0  [0 байт/сек]
Пред. тема | След. тема 

Автор
Сообщение

СообщениеДобавлено: 26 июн 2020, 16:59 

Ответить с цитатой 

Re:\Legion (Re-Legion) - 13 Seconds
Жанр: Electro, Industrial
Год выпуска диска: 2007
Производитель диска: Germany
Аудио кодек: FLAC
Тип рипа: image+.cue
Битрейт аудио: lossless
Продолжительность: 01:06:25
Трэклист:
01. 2-02 [2:02]
02. Legion [4:33]
03. Line B [4:35]
04. Deception (Honoured) V2.0 [4:29]
05. Electri:City [6:07]
06. Dn38416 (Re:Terminated) [ 6:06]
07. Prelude To Pests [1:40]
08. Pests Of Flesh [4:44]
09. Equinox [4:47]
10. Cancer Decay [4:41]
11. Nachthexen [5:40]
12. Trance:Mission [4:58]
13. The Travellers [6:32]
14. 14 Seconds [0:16]
15. Lagoon [5:09]
Код:
Exact Audio Copy V0.99 prebeta 5 from 4. May 2009
Отчёт EAC об извлечении, выполненном 3. апреля 2010, 16:33
Re-Legion / 13 Seconds
Дисковод: Optiarc DVD RW AD-7201S   Adapter: 2  ID: 1
Режим чтения                 : Достоверность
Использование точного потока : Да
Отключение кэша аудио        : да
Использование указателей C2  : Нет
Коррекция смещения при чтении                     : 48
Способность читать области Lead-in и Lead-out     : Нет
Заполнение пропущенных сэмплов тишиной            : Да
Удаление блоков с тишиной в начале и конце        : Нет
При вычислениях CRC использовались нулевые сэмплы : Да
Интерфейс                                         : Встроенный Win32-интерфейс для Win NT/2000
Выходной формат : Внутренние WAV-операции
Формат сэмплов  : 44.100 Гц; 16 бит; стерео
TOC извлечённого CD
     Трек |   Старт  | Длительность | Начальный сектор | Конечный сектор
    ---------------------------------------------------------------------
       1  |  0:00.00 |    2:02.08   |           0      |       9157
       2  |  2:02.08 |    4:33.37   |        9158      |      29669
       3  |  6:35.45 |    4:35.23   |       29670      |      50317
       4  | 11:10.68 |    4:29.58   |       50318      |      70550
       5  | 15:40.51 |    6:07.47   |       70551      |      98122
       6  | 21:48.23 |    6:06.45   |       98123      |     125617
       7  | 27:54.68 |    1:40.58   |      125618      |     133175
       8  | 29:35.51 |    4:44.21   |      133176      |     154496
       9  | 34:19.72 |    4:47.00   |      154497      |     176021
      10  | 39:06.72 |    4:41.04   |      176022      |     197100
      11  | 43:48.01 |    5:40.27   |      197101      |     222627
      12  | 49:28.28 |    4:58.31   |      222628      |     245008
      13  | 54:26.59 |    6:32.15   |      245009      |     274423
      14  | 60:58.74 |    0:16.11   |      274424      |     275634
      15  | 61:15.10 |    5:09.41   |      275635      |     298850
Характеристики диапазона извлечения и сообщения об ошибках
Выбранный диапазон
     Имя файла D:\Раздачи\Re-Legion\Re-Legion - 13 Seconds.wav
     Пиковый уровень 97.7 %
     Качество диапазона 100.0 %
     CRC теста 1D269D09
     CRC копии 1D269D09
     Копирование... OK
Ошибок не произошло
AccurateRip: сводка
Трек  1  нет в базе данных
Трек  2  нет в базе данных
Трек  3  нет в базе данных
Трек  4  нет в базе данных
Трек  5  нет в базе данных
Трек  6  нет в базе данных
Трек  7  нет в базе данных
Трек  8  нет в базе данных
Трек  9  нет в базе данных
Трек 10  нет в базе данных
Трек 11  нет в базе данных
Трек 12  нет в базе данных
Трек 13  нет в базе данных
Трек 14  нет в базе данных
Трек 15  нет в базе данных
Ни одного трека нет в базе AccurateRip
Конец отчёта
Код:
Started at: суббота, 03. 04. 2010. - 17:15.55
1 file found
1 -===- D:\Раздачи\Re-Legion\Re-Legion - 13 Seconds.flac
  Extracted successfully
  Conclusion: this track is CDDA with probability 100%
  Tempfile successfully deleted.
Finished at: суббота, 03. 04. 2010. - 17:23.46 (operation time: 0:07.50)
Label:Rupal Records, E-noxe
Catalog#:RR 007, nx054
Format:CD, Album
Country:Germany
Released:Sep 2007
Genre:Electronic
Style:Electro, Industrial
Правила, инструкции, FAQ!!!
Торрент  Добавлен [26 июн 2020, 16:59] Скачать торрент Магнет ссылка
Скачать торрент
[ Размер 11.01 КБ / Просмотров 4 ]

Статус
Проверен 
 
Размер  525.18 МБ
Приватный: Нет (DHT включён)
.torrent скачан  0
 


     Отправить личное сообщение
   
Страница 1 из 1
Показать сообщения за:  Поле сортировки  
Начать новую тему Ответить на тему


Сейчас этот форум просматривают: нет зарегистрированных пользователей и гости: 0


Вы не можете начинать темы
Вы не можете отвечать на сообщения
Вы не можете редактировать свои сообщения
Вы не можете удалять свои сообщения
Вы не можете добавлять вложения

Перейти:  
cron