Начать новую тему Ответить на тему
Статистика раздачи
Размер: 568.85 МБ | Добавлен: 26 июн 2020, 17:18 | Скачали: 0
Сидеров: 0  [0 байт/сек]    Личеров: 0  [0 байт/сек]
Пред. тема | След. тема 

Автор
Сообщение

СообщениеДобавлено: 26 июн 2020, 17:18 

Ответить с цитатой 

Left Spine Down / Caution
Жанр: electro industrial
Страна-производитель диска: USA
Год издания диска: 2011
Издатель (лейбл): Metropolis Records
Номер по каталогу: MET-732
Аудиокодек: FLAC (*.flac)
Тип рипа: image+.cue
Битрейт аудио: lossless
Продолжительность: 1:19:06.55
Источник (релизер): Физический носитель
Наличие сканов в содержимом раздачи: да
Треклист:
01. Troubleshoot [6:52]
02. The Truth Is A Lie [4:02]
03. X-Ray [4:47]
04. Hit And Run [4:51]
05. On The Other Side [4:59]
06. Stolen Car [4:07]
07. From Thirty To Zero [6:54]
08. Overdriven [4:21]
09. Nothing To Fear [6:11]
10. Caution [32:02]
Код:
Exact Audio Copy V1.0 beta 1 from 15. November 2010
Отчёт EAC об извлечении, выполненном 16. ноября 2011, 19:29
Left Spine Down / Caution
Дисковод: _NEC    DVD_RW ND-3520A   Adapter: 0  ID: 1
Режим чтения                 : Достоверность
Использование точного потока : Да
Отключение кэша аудио        : Да
Использование указателей C2  : Нет
Коррекция смещения при чтении                     : 48
Способность читать области Lead-in и Lead-out     : Нет
Заполнение пропущенных сэмплов тишиной            : Да
Удаление блоков с тишиной в начале и конце        : Нет
При вычислениях CRC использовались нулевые сэмплы : Да
Интерфейс                                         : Установленный внешний ASPI-интерфейс
Выходной формат          : Пользовательский кодировщик
Выбранный битрейт        : 1024 kBit/s
Качество                 : Высокий
Добавление ID3-тэга      : Нет
Утилита сжатия           : D:\Program Files\Exact Audio Copy\FLAC\FLAC.EXE
Дополнительные параметры : -6 -V -T "ARTIST=%a" -T "TITLE=%t" -T "ALBUM=%g" -T "DATE=%y" -T "TRACKNUMBER=%n" -T "GENRE=%m" -T "COMMENT=%e" %j--picture="%i"%j %s -o %d
TOC извлечённого CD
     Трек |   Старт  | Длительность | Начальный сектор | Конечный сектор
    ---------------------------------------------------------------------
       1  |  0:00.00 |    6:52.17   |           0      |      30916
       2  |  6:52.17 |    4:01.72   |       30917      |      49063
       3  | 10:54.14 |    4:47.19   |       49064      |      70607
       4  | 15:41.33 |    4:51.31   |       70608      |      92463
       5  | 20:32.64 |    4:59.37   |       92464      |     114925
       6  | 25:32.26 |    4:06.56   |      114926      |     133431
       7  | 29:39.07 |    6:53.73   |      133432      |     164479
       8  | 36:33.05 |    4:20.67   |      164480      |     184046
       9  | 40:53.72 |    6:11.01   |      184047      |     211872
      10  | 47:04.73 |   32:01.57   |      211873      |     356004
Характеристики диапазона извлечения и сообщения об ошибках
Выбранный диапазон
     Имя файла O:\На трекер\Left Spine Down - Caution.wav
     Пиковый уровень 98.8 %
2.7 X
     Качество диапазона 99.9 %
     CRC теста F08B2132
     CRC копии F08B2132
     Копирование... OK
Ошибок не произошло
AccurateRip: сводка
Трек  1  точное извлечение (доверие 1)  [33217E1E]
Трек  2  точное извлечение (доверие 1)  [580BDED0]
Трек  3  точное извлечение (доверие 1)  [C8757525]
Трек  4  точное извлечение (доверие 1)  [0C0DF568]
Трек  5  точное извлечение (доверие 1)  [ED7B0256]
Трек  6  точное извлечение (доверие 1)  [2FB3BDA5]
Трек  7  точное извлечение (доверие 1)  [E2BF2290]
Трек  8  точное извлечение (доверие 1)  [CA5FB494]
Трек  9  точное извлечение (доверие 1)  [B82E88DF]
Трек 10  точное извлечение (доверие 1)  [3287BFEA]
Все треки извлечены точно
Конец отчёта
====  76D8505E503A485256B141507B4ADD05775E4E3526892EBB3B20448D4048AAF3 ====
Правила, инструкции, FAQ!!!
Торрент  Добавлен [26 июн 2020, 17:18] Скачать торрент Магнет ссылка
Скачать торрент
[ Размер 12.18 КБ / Просмотров 7 ]

Статус
Проверен 
 
Размер  568.85 МБ
Приватный: Нет (DHT включён)
.torrent скачан  0
 


     Отправить личное сообщение
   
Страница 1 из 1
Показать сообщения за:  Поле сортировки  
Начать новую тему Ответить на тему


Сейчас этот форум просматривают: нет зарегистрированных пользователей и гости: 0


Вы не можете начинать темы
Вы не можете отвечать на сообщения
Вы не можете редактировать свои сообщения
Вы не можете удалять свои сообщения
Вы не можете добавлять вложения

Перейти:  
cron