Начать новую тему Ответить на тему
Статистика раздачи
Размер: 729.36 МБ | Добавлен: 26 июн 2020, 17:29 | Скачали: 0
Сидеров: 0  [0 байт/сек]    Личеров: 0  [0 байт/сек]
Пред. тема | След. тема 

Автор
Сообщение

СообщениеДобавлено: 26 июн 2020, 17:29 

Ответить с цитатой 

Leaether Strip (Leæther Strip) / Fetish (Fætish) [2CD Box Limited Edition]
#777Жанр: Electro, Industrial
Страна-производитель диска: Belgium
Год издания диска: 2006
Издатель (лейбл): Alfa Matrix
Номер по каталогу: AM-2085-DCD
Страна: Denmark
Аудио кодек: FLAC (*.flac)
Тип рипа: image+.cue
Битрейт аудио: lossless
Продолжительность: 1:03:58.56 + 0:35:09.29
Источник (релизер): 2CD Box из личной коллекции.
Наличие сканов в содержимом раздачи: да
Треклист:
CD 1 - Fætish
01. Be My Fetish 6:09
02. Manic Aggression (Psychopharmacology Version) 7:19
03. Punktured Eyeballs 7:01
04. We Will Walk With Pride (Moscow 28 May 2006 Version) 6:36
05. Be My Fetish (Homemade Porn Mix) 8:05
06. Tears Run Rings 6:52
07. The Kitchen Knife (Pocket Knife Version) 5:22
08. Frank Tovey Taught Me Things 4:20
09. Adrenalin Rush 2006 6:31
10. Watch It Burn 5:39
CD 2 - Hælloween
01. Halloween Theme (John Carpenter) 6:45
02. Halloween Theme (The Shape Version) 6:35
03. Halloween Theme (Vocoder Violence Version) 5:33
04. The Kitchen Knife (12 Inch Cleaver Version) 10:11
05. We Will Walk With Pride (To Russia With Love) 6:02
Код:
Exact Audio Copy V0.99 prebeta 5 from 4. May 2009
Отчёт EAC об извлечении, выполненном 28. октября 2010, 9:44
Leaether Strip / Fetish
Дисковод: TSSTcorpCDDVDW TS-L632H   Adapter: 0  ID: 0
Режим чтения                 : Достоверность
Использование точного потока : Да
Отключение кэша аудио        : Да
Использование указателей C2  : Нет
Коррекция смещения при чтении                     : 6
Способность читать области Lead-in и Lead-out     : Нет
Заполнение пропущенных сэмплов тишиной            : Да
Удаление блоков с тишиной в начале и конце        : Нет
При вычислениях CRC использовались нулевые сэмплы : Да
Интерфейс                                         : Встроенный Win32-интерфейс для Win NT/2000
Выходной формат          : Пользовательский кодировщик
Выбранный битрейт        : 1024 kBit/s
Качество                 : Высокий
Добавление ID3-тэга      : Нет
Утилита сжатия           : C:\Program Files\Exact Audio Copy\FLAC\FLAC.EXE
Дополнительные параметры : -6 -V -T "ARTIST=%a" -T "TITLE=%t" -T "ALBUM=%g" -T "DATE=%y" -T "TRACKNUMBER=%n" -T "GENRE=%m" -T "COMMENT=%e" %s -o %d
TOC извлечённого CD
     Трек |   Старт  | Длительность | Начальный сектор | Конечный сектор
    ---------------------------------------------------------------------
       1  |  0:00.00 |    6:09.11   |           0      |      27685
       2  |  6:09.11 |    7:19.31   |       27686      |      60641
       3  | 13:28.42 |    7:01.64   |       60642      |      92280
       4  | 20:30.31 |    6:36.54   |       92281      |     122034
       5  | 27:07.10 |    8:05.43   |      122035      |     158452
       6  | 35:12.53 |    6:52.59   |      158453      |     189411
       7  | 42:05.37 |    5:22.73   |      189412      |     213634
       8  | 47:28.35 |    4:20.19   |      213635      |     233153
       9  | 51:48.54 |    6:31.00   |      233154      |     262478
      10  | 58:19.54 |    5:39.02   |      262479      |     287905
Характеристики диапазона извлечения и сообщения об ошибках
Выбранный диапазон
     Имя файла C:\Users\Алексей\Desktop\iPOD\Leaether Strip - Fetish.wav
     Пиковый уровень 100.0 %
     Качество диапазона 100.0 %
     CRC теста 4CA35357
     CRC копии 4CA35357
     Копирование... OK
Ошибок не произошло
AccurateRip: сводка
Трек  1  точное извлечение (доверие 5)  [C63C2827]
Трек  2  точное извлечение (доверие 5)  [EADCB3C8]
Трек  3  точное извлечение (доверие 5)  [8E7E9D6D]
Трек  4  точное извлечение (доверие 5)  [CAFA7C47]
Трек  5  точное извлечение (доверие 5)  [DBACB554]
Трек  6  точное извлечение (доверие 5)  [267C3932]
Трек  7  точное извлечение (доверие 5)  [91C68B47]
Трек  8  точное извлечение (доверие 5)  [3F66623A]
Трек  9  точное извлечение (доверие 5)  [5A246655]
Трек 10  точное извлечение (доверие 5)  [1168ADF9]
Все треки извлечены точно
Конец отчёта
Код:
Exact Audio Copy V0.99 prebeta 5 from 4. May 2009
Отчёт EAC об извлечении, выполненном 28. октября 2010, 10:19
Leaether Strip / Halloween (Bonus CD)
Дисковод: TSSTcorpCDDVDW TS-L632H   Adapter: 0  ID: 0
Режим чтения                 : Достоверность
Использование точного потока : Да
Отключение кэша аудио        : Да
Использование указателей C2  : Нет
Коррекция смещения при чтении                     : 6
Способность читать области Lead-in и Lead-out     : Нет
Заполнение пропущенных сэмплов тишиной            : Да
Удаление блоков с тишиной в начале и конце        : Нет
При вычислениях CRC использовались нулевые сэмплы : Да
Интерфейс                                         : Встроенный Win32-интерфейс для Win NT/2000
Выходной формат          : Пользовательский кодировщик
Выбранный битрейт        : 1024 kBit/s
Качество                 : Высокий
Добавление ID3-тэга      : Нет
Утилита сжатия           : C:\Program Files\Exact Audio Copy\FLAC\FLAC.EXE
Дополнительные параметры : -6 -V -T "ARTIST=%a" -T "TITLE=%t" -T "ALBUM=%g" -T "DATE=%y" -T "TRACKNUMBER=%n" -T "GENRE=%m" -T "COMMENT=%e" %s -o %d
TOC извлечённого CD
     Трек |   Старт  | Длительность | Начальный сектор | Конечный сектор
    ---------------------------------------------------------------------
       1  |  0:00.00 |    6:45.66   |           0      |      30440
       2  |  6:45.66 |    6:35.50   |       30441      |      60115
       3  | 13:21.41 |    5:33.64   |       60116      |      85154
       4  | 18:55.30 |   10:11.71   |       85155      |     131050
       5  | 29:07.26 |    6:02.03   |      131051      |     158203
Характеристики диапазона извлечения и сообщения об ошибках
Выбранный диапазон
     Имя файла C:\Users\Алексей\Desktop\iPOD\Leaether Strip - Fetish Box\Leaether Strip - Halloween (Bonus CD).wav
     Пиковый уровень 100.0 %
     Качество диапазона 100.0 %
     CRC теста 20C676EB
     CRC копии 20C676EB
     Копирование... OK
Ошибок не произошло
AccurateRip: сводка
Трек  1  точное извлечение (доверие 3)  [5100E6D5]
Трек  2  точное извлечение (доверие 3)  [65A36922]
Трек  3  точное извлечение (доверие 3)  [ED9E5D33]
Трек  4  точное извлечение (доверие 3)  [850B7FE1]
Трек  5  точное извлечение (доверие 3)  [A47AA620]
Все треки извлечены точно
Конец отчёта
Код:
REM GENRE EBM
REM DATE 2006
REM DISCID 650EFE0A
REM COMMENT "ExactAudioCopy v0.99pb5"
PERFORMER "Leaether Strip"
TITLE "Fetish"
FILE "Leaether Strip - Fetish.flac" WAVE
  TRACK 01 AUDIO
    TITLE "Be my fetish"
    PERFORMER "Leaether Strip"
    FLAGS DCP
    INDEX 01 00:00:00
  TRACK 02 AUDIO
    TITLE "Manic aggression (Psychopharmacology version)"
    PERFORMER "Leaether Strip"
    FLAGS DCP
    INDEX 00 06:07:11
    INDEX 01 06:09:11
  TRACK 03 AUDIO
    TITLE "Punktured eyeballs"
    PERFORMER "Leaether Strip"
    FLAGS DCP
    INDEX 00 13:26:42
    INDEX 01 13:28:42
  TRACK 04 AUDIO
    TITLE "We will walk with pride (28 may 2006 version)"
    PERFORMER "Leaether Strip"
    FLAGS DCP
    INDEX 00 20:28:31
    INDEX 01 20:30:31
  TRACK 05 AUDIO
    TITLE "Be my fetish (Homemade porn version)"
    PERFORMER "Leaether Strip"
    FLAGS DCP
    INDEX 00 27:05:10
    INDEX 01 27:07:10
  TRACK 06 AUDIO
    TITLE "Tears run rings"
    PERFORMER "Leaether Strip"
    FLAGS DCP
    INDEX 00 35:10:53
    INDEX 01 35:12:53
  TRACK 07 AUDIO
    TITLE "The kitchen knife (pocket knife version)"
    PERFORMER "Leaether Strip"
    FLAGS DCP
    INDEX 00 42:03:37
    INDEX 01 42:05:37
  TRACK 08 AUDIO
    TITLE "Frank Tovey taught me things"
    PERFORMER "Leaether Strip"
    FLAGS DCP
    INDEX 00 47:26:35
    INDEX 01 47:28:35
  TRACK 09 AUDIO
    TITLE "Adrenalin rush 2006"
    PERFORMER "Leaether Strip"
    FLAGS DCP
    INDEX 00 51:46:54
    INDEX 01 51:48:54
  TRACK 10 AUDIO
    TITLE "Watch it burn"
    PERFORMER "Leaether Strip"
    FLAGS DCP
    INDEX 00 58:17:54
    INDEX 01 58:19:54
Код:
REM GENRE EBM
REM DATE 2006
REM DISCID 39083D05
REM COMMENT "ExactAudioCopy v0.99pb5"
PERFORMER "Leaether Strip"
TITLE "Halloween (Bonus CD)"
FILE "Leaether Strip - Halloween (Bonus CD).flac" WAVE
  TRACK 01 AUDIO
    TITLE "Halloween Theme"
    PERFORMER "Leaether Strip"
    FLAGS DCP
    INDEX 01 00:00:00
  TRACK 02 AUDIO
    TITLE "Halloween Theme  (the shape version)"
    PERFORMER "Leaether Strip"
    FLAGS DCP
    INDEX 00 06:43:66
    INDEX 01 06:45:66
  TRACK 03 AUDIO
    TITLE "Halloween Theme (vocoder violence version)"
    PERFORMER "Leaether Strip"
    FLAGS DCP
    INDEX 00 13:19:41
    INDEX 01 13:21:41
  TRACK 04 AUDIO
    TITLE "The kitchen knife  (12 inch cleaver version)"
    PERFORMER "Leaether Strip"
    FLAGS DCP
    INDEX 00 18:53:30
    INDEX 01 18:55:30
  TRACK 05 AUDIO
    TITLE "We will walk with pride (to Russia with love)"
    PERFORMER "Leaether Strip"
    FLAGS DCP
    INDEX 00 29:05:26
    INDEX 01 29:07:26
Код:
[url=https://fastpic.ru/view/11/2010/1106/3676e76d8ef8771859898e1754a492d1.jpg.html][img]http://i11.fastpic.ru/thumb/2010/1106/d1/3676e76d8ef8771859898e1754a492d1.jpeg[/img][/url][url=https://fastpic.ru/view/11/2010/1106/679d1ccca49a7d26acde86f2c122026a.jpg.html][img]http://i11.fastpic.ru/thumb/2010/1106/6a/679d1ccca49a7d26acde86f2c122026a.jpeg[/img][/url]
CD 1 - Fætish

CD 2 - Hælloween
ОГРОМНАЯ БЛАГОДАРНОСТЬ НАШЕМУ КОЛЛЕГЕ KERGARN`у ЗА СКАНЫ!!!
Правила, инструкции, FAQ!!!
Торрент  Добавлен [26 июн 2020, 17:29] Скачать торрент Магнет ссылка
Скачать торрент
[ Размер 16.66 КБ / Просмотров 13 ]

Статус
Проверен 
 
Размер  729.36 МБ
Приватный: Нет (DHT включён)
.torrent скачан  0
 


     Отправить личное сообщение
   
Страница 1 из 1
Показать сообщения за:  Поле сортировки  
Начать новую тему Ответить на тему


Сейчас этот форум просматривают: нет зарегистрированных пользователей и гости: 0


Вы не можете начинать темы
Вы не можете отвечать на сообщения
Вы не можете редактировать свои сообщения
Вы не можете удалять свои сообщения
Вы не можете добавлять вложения

Перейти:  
cron