Начать новую тему Ответить на тему
Статистика раздачи
Размер: 385.57 МБ | Добавлен: 26 июн 2020, 20:36 | Скачали: 0
Сидеров: 0  [0 байт/сек]    Личеров: 0  [0 байт/сек]
Пред. тема | След. тема 

Автор
Сообщение

СообщениеДобавлено: 26 июн 2020, 20:36 

Ответить с цитатой 

Leaether Strip - Self-Inflicted
Жанр: Electro, Industrial
Год выпуска диска: 1997
Производитель диска: Германия
Аудио кодек: FLAC
Тип рипа: tracks+.cue
Битрейт аудио: lossless
Продолжительность: 53:35.45
Трэклист:
01. Hate Me!
02. Black Candle
03. Understand My Torment
04. Are We The Sinners?
05. Give It Back
06. Face The Fire
07. Coming Up For Air
08. Tell Me What To Do!
09. Under My Control
10. Kill A Raver
11. Showroom Dummies
12. X-Files Theme
Exact Audio Copy V0.99 prebeta 4 from 23. January 2008
EAC extraction logfile from 18. September 2008, 5:11
Leaether Strip / Self-Inflicted
Used drive : TSSTcorpCD/DVDW SH-W162Z Adapter: 5 ID: 0
Read mode : Secure
Utilize accurate stream : Yes
Defeat audio cache : No
Make use of C2 pointers : Yes
Read offset correction : 6
Overread into Lead-In and Lead-Out : No
Fill up missing offset samples with silence : Yes
Delete leading and trailing silent blocks : No
Null samples used in CRC calculations : Yes
Used interface : Native Win32 interface for Win NT & 2000
Gap handling : Appended to previous track
Used output format : User Defined Encoder
Selected bitrate : 224 kBit/s
Quality : High
Add ID3 tag : No
Command line compressor : C:\Program Files\Exact Audio Copy\Flac\flac.exe
Additional command line options : -V -8 -T "artist=%a" -T "title=%t" -T "album=%g" -T "date=%y" -T "tracknumber=%n" -T "genre=%m" %s
TOC of the extracted CD
Track | Start | Length | Start sector | End sector
---------------------------------------------------------
1 | 0:01.00 | 4:03.26 | 75 | 18325
2 | 4:04.26 | 5:07.60 | 18326 | 41410
3 | 9:12.11 | 5:02.06 | 41411 | 64066
4 | 14:14.17 | 5:21.24 | 64067 | 88165
5 | 19:35.41 | 4:38.42 | 88166 | 109057
6 | 24:14.08 | 5:50.25 | 109058 | 135332
7 | 30:04.33 | 4:52.48 | 135333 | 157280
8 | 34:57.06 | 4:31.60 | 157281 | 177665
9 | 39:28.66 | 4:26.65 | 177666 | 197680
10 | 43:55.56 | 4:44.44 | 197681 | 219024
11 | 48:40.25 | 4:55.20 | 219025 | 241169
12 | 53:35.45 | 5:46.73 | 241170 | 267192
Track 1
Filename H:\hear encoding\leжther strip\leжther strip - self-inflicted flac\Leaether Strip - Self-Inflicted - 01 - Hate Me!.wav
Pre-gap length 0:00:03.00
Peak level 99.9 %
Track quality 100.0 %
Test CRC 1AAD2AA6
Copy CRC 1AAD2AA6
Accurately ripped (confidence 9) [9255E3F5]
Copy OK
Track 2
Filename H:\hear encoding\leжther strip\leжther strip - self-inflicted flac\Leaether Strip - Self-Inflicted - 02 - Black Candle.wav
Pre-gap length 0:00:02.45
Peak level 99.8 %
Track quality 100.0 %
Test CRC 41BF9682
Copy CRC 41BF9682
Accurately ripped (confidence 9) [DC6B7D92]
Copy OK
Track 3
Filename H:\hear encoding\leжther strip\leжther strip - self-inflicted flac\Leaether Strip - Self-Inflicted - 03 - Understand My Torment.wav
Pre-gap length 0:00:02.41
Peak level 99.4 %
Track quality 100.0 %
Test CRC 55D48104
Copy CRC 55D48104
Accurately ripped (confidence 9) [E4044E93]
Copy OK
Track 4
Filename H:\hear encoding\leжther strip\leжther strip - self-inflicted flac\Leaether Strip - Self-Inflicted - 04 - Are We the Sinners .wav
Pre-gap length 0:00:02.38
Peak level 99.9 %
Track quality 100.0 %
Test CRC 87D50C4C
Copy CRC 87D50C4C
Accurately ripped (confidence 9) [B9DE0B43]
Copy OK
Track 5
Filename H:\hear encoding\leжther strip\leжther strip - self-inflicted flac\Leaether Strip - Self-Inflicted - 05 - Give it Back.wav
Pre-gap length 0:00:02.45
Peak level 99.6 %
Track quality 99.9 %
Test CRC 9760A94C
Copy CRC 9760A94C
Accurately ripped (confidence 9) [1062C466]
Copy OK
Track 6
Filename H:\hear encoding\leжther strip\leжther strip - self-inflicted flac\Leaether Strip - Self-Inflicted - 06 - Face the Fire.wav
Pre-gap length 0:00:02.45
Peak level 99.7 %
Track quality 100.0 %
Test CRC F38C70F9
Copy CRC F38C70F9
Accurately ripped (confidence 9) [07D4E142]
Copy OK
Track 7
Filename H:\hear encoding\leжther strip\leжther strip - self-inflicted flac\Leaether Strip - Self-Inflicted - 07 - Coming Up for Air.wav
Pre-gap length 0:00:02.40
Peak level 99.7 %
Track quality 100.0 %
Test CRC DB843C6C
Copy CRC DB843C6C
Accurately ripped (confidence 9) [9AC6FD42]
Copy OK
Track 8
Filename H:\hear encoding\leжther strip\leжther strip - self-inflicted flac\Leaether Strip - Self-Inflicted - 08 - Tell Me What To Do!.wav
Pre-gap length 0:00:02.42
Peak level 100.0 %
Track quality 100.0 %
Test CRC 63181CE3
Copy CRC 63181CE3
Accurately ripped (confidence 8) [5EC8DD62]
Copy OK
Track 9
Filename H:\hear encoding\leжther strip\leжther strip - self-inflicted flac\Leaether Strip - Self-Inflicted - 09 - Under My Control.wav
Pre-gap length 0:00:02.43
Peak level 99.4 %
Track quality 100.0 %
Test CRC 07544694
Copy CRC 07544694
Accurately ripped (confidence 9) [B41C3C16]
Copy OK
Track 10
Filename H:\hear encoding\leжther strip\leжther strip - self-inflicted flac\Leaether Strip - Self-Inflicted - 10 - Kill A Raver.wav
Pre-gap length 0:00:02.40
Peak level 99.9 %
Track quality 100.0 %
Test CRC 4D110031
Copy CRC 4D110031
Accurately ripped (confidence 8) [97B1E02B]
Copy OK
Track 11
Filename H:\hear encoding\leжther strip\leжther strip - self-inflicted flac\Leaether Strip - Self-Inflicted - 11 - Showroom Dummies.wav
Pre-gap length 0:00:02.44
Peak level 99.0 %
Track quality 100.0 %
Test CRC E3499027
Copy CRC E3499027
Accurately ripped (confidence 9) [4AF639AB]
Copy OK
Track 12
Filename H:\hear encoding\leжther strip\leжther strip - self-inflicted flac\Leaether Strip - Self-Inflicted - 12 - X-Files Theme.wav
Pre-gap length 0:00:02.42
Peak level 99.4 %
Track quality 100.0 %
Test CRC 8D89B65C
Copy CRC 8D89B65C
Accurately ripped (confidence 8) [4036E523]
Copy OK
All tracks accurately ripped
No errors occurred
End of status report
AUDIOCHECKER v2.0 beta (build 457) - by Dester - opdester@freemail.hu
~~~~~~~~~~~~~~~~~~~~~~~~~~~~~~~~~~
-=== DO NOT EDIT THIS FILE! ===-
Path: ...\Self-Inflicted [1997]
01 -=- Leaether Strip - Self-Inflicted - 01 - Hate Me!.flac -=- CDDA (100%)
02 -=- Leaether Strip - Self-Inflicted - 02 - Black Candle.flac -=- CDDA (100%)
03 -=- Leaether Strip - Self-Inflicted - 03 - Understand My Torment.flac -=- CDDA (99%)
04 -=- Leaether Strip - Self-Inflicted - 04 - Are We the Sinners .flac -=- CDDA (100%)
05 -=- Leaether Strip - Self-Inflicted - 05 - Give it Back.flac -=- CDDA (100%)
06 -=- Leaether Strip - Self-Inflicted - 06 - Face the Fire.flac -=- CDDA (100%)
07 -=- Leaether Strip - Self-Inflicted - 07 - Coming Up for Air.flac -=- CDDA (100%)
08 -=- Leaether Strip - Self-Inflicted - 08 - Tell Me What To Do!.flac -=- CDDA (100%)
09 -=- Leaether Strip - Self-Inflicted - 09 - Under My Control.flac -=- CDDA (100%)
10 -=- Leaether Strip - Self-Inflicted - 10 - Kill A Raver.flac -=- CDDA (100%)
11 -=- Leaether Strip - Self-Inflicted - 11 - Showroom Dummies.flac -=- CDDA (100%)
12 -=- Leaether Strip - Self-Inflicted - 12 - X-Files Theme.flac -=- CDDA (100%)
Summary 99,92% CDDA
146784516
Доп. информация:
Label: Zoth Ommog
Catalog#: CD ZOT 178
Format: CD, Album, Digipak
Country: Germany
Released: 1997
Genre: Electronic
Style: Electro, Industrial
Credits: Arranged By, Producer, Mixed By, Recorded By, Mastered By, Artwork By - Claus Larsen
Artwork By - André Menge/Menge Design
Written-By, Lyrics By - Claus Larsen (tracks: 1 to 10)
Notes: Arranged, produced, mixed, recorded and mastered at Strip Farm, Denmark in 1996.
Данный релиз, был успешно подготовлен, благодаря maxmin, за что ему огромное спасибо!
Правила, инструкции, FAQ!!!
Торрент  Добавлен [26 июн 2020, 20:36] Скачать торрент Магнет ссылка
Скачать торрент
[ Размер 9.28 КБ / Просмотров 7 ]

Статус
Проверен 
 
Размер  385.57 МБ
Приватный: Нет (DHT включён)
.torrent скачан  0
 


     Отправить личное сообщение
   
Страница 1 из 1
Показать сообщения за:  Поле сортировки  
Начать новую тему Ответить на тему


Сейчас этот форум просматривают: нет зарегистрированных пользователей и гости: 0


Вы не можете начинать темы
Вы не можете отвечать на сообщения
Вы не можете редактировать свои сообщения
Вы не можете удалять свои сообщения
Вы не можете добавлять вложения

Перейти:  
cron