Начать новую тему Ответить на тему
Статистика раздачи
Размер: 326.23 МБ | Добавлен: 26 июн 2020, 17:40 | Скачали: 0
Сидеров: 1  [0 байт/сек]    Личеров: 0  [0 байт/сек]
Пред. тема | След. тема 

Автор
Сообщение

СообщениеДобавлено: 26 июн 2020, 17:40 

Ответить с цитатой 

Kobold / The Taste of Copper
Жанр: Electro-Industrial
Страна-производитель диска: Canada
Год издания: 2006
Издатель (лейбл): Artoffact
Номер по каталогу: AOF038
Страна: USA
Аудиокодек: FLAC (*.flac)
Тип рипа: image+.cue
Битрейт аудио: lossless
Источник (релизер): собственный рип с фирменного CD
Наличие сканов в содержимом раздачи: нет
Треклист:
1. The Other Side (Of A Broken Mirror) - 03:09
2. Puzzlebox - 04:21
3. Intrinsic - 05:46
4. Extrinsic - 00:57
5. Rubicon - 04:20
6. Blowback - 06:33
7. Human Cages - 05:17
8. Failure - 05:57
9. The Taste Of Copper - 05:50
10. Murmur - 00:42
11. The Other Side (Biaxial Creep Mix) - 05:13
12. Human Cages (Biaxial Creep Mix) - 05:25
Код:
Exact Audio Copy V1.0 beta 3 from 29. August 2011
EAC extraction logfile from 22. February 2013, 20:47
KOBOLD / THE TASTE of COPPER
Used drive  : Optiarc DVD RW AD-5200S   Adapter: 1  ID: 0
Read mode               : Secure
Utilize accurate stream : Yes
Defeat audio cache      : Yes
Make use of C2 pointers : No
Read offset correction                      : 48
Overread into Lead-In and Lead-Out          : No
Fill up missing offset samples with silence : Yes
Delete leading and trailing silent blocks   : No
Null samples used in CRC calculations       : Yes
Used interface                              : Native Win32 interface for Win NT & 2000
Used output format              : User Defined Encoder
Selected bitrate                : 128 kBit/s
Quality                         : High
Add ID3 tag                     : No
Command line compressor         : C:\Program Files\FLAC\flac.exe
Additional command line options : -V -8 -T "Date=%year%" -T "Genre=%genre%" %source%
TOC of the extracted CD
     Track |   Start  |  Length  | Start sector | End sector
    ---------------------------------------------------------
        1  |  0:00.00 |  3:09.37 |         0    |    14211
        2  |  3:09.37 |  4:21.55 |     14212    |    33841
        3  |  7:31.17 |  5:46.58 |     33842    |    59849
        4  | 13:18.00 |  0:57.71 |     59850    |    64195
        5  | 14:15.71 |  4:20.28 |     64196    |    83723
        6  | 18:36.24 |  6:33.38 |     83724    |   113236
        7  | 25:09.62 |  5:17.13 |    113237    |   137024
        8  | 30:27.00 |  5:57.67 |    137025    |   163866
        9  | 36:24.67 |  5:50.06 |    163867    |   190122
       10  | 42:14.73 |  0:42.15 |    190123    |   193287
       11  | 42:57.13 |  5:13.41 |    193288    |   216803
       12  | 48:10.54 |  5:25.29 |    216804    |   241207
Range status and errors
Selected range
     Filename G:\Rips\KOBOLD - THE TASTE of COPPER.wav
     Peak level 100.0 %
     Extraction speed 3.8 X
     Range quality 99.9 %
     Test CRC 234FA2AB
     Copy CRC 234FA2AB
     Copy OK
No errors occurred
End of status report
==== Log checksum EBD8D958CD0916EF359BF50E92551928E17A80354DB3C9E868AB7E0904158D3E ====
Код:
REM GENRE Electro-Industrial
REM DATE 2006
REM DISCID A90C900C
REM COMMENT "ExactAudioCopy v1.0b3"
PERFORMER "KOBOLD"
TITLE "THE TASTE of COPPER"
FILE "KOBOLD - THE TASTE of COPPER.flac" WAVE
  TRACK 01 AUDIO
    TITLE "The Other Side (of A Broken Mirror)"
    PERFORMER "KOBOLD"
    INDEX 01 00:00:00
  TRACK 02 AUDIO
    TITLE "Puzzlebox"
    PERFORMER "KOBOLD"
    INDEX 00 03:07:57
    INDEX 01 03:09:37
  TRACK 03 AUDIO
    TITLE "Intrinsic"
    PERFORMER "KOBOLD"
    INDEX 01 07:31:17
  TRACK 04 AUDIO
    TITLE "Extrinsic"
    PERFORMER "KOBOLD"
    INDEX 00 13:11:69
    INDEX 01 13:18:00
  TRACK 05 AUDIO
    TITLE "Rubicon"
    PERFORMER "KOBOLD"
    INDEX 01 14:15:71
  TRACK 06 AUDIO
    TITLE "Blowback"
    PERFORMER "KOBOLD"
    INDEX 00 18:35:34
    INDEX 01 18:36:24
  TRACK 07 AUDIO
    TITLE "Human Cages"
    PERFORMER "KOBOLD"
    INDEX 01 25:09:62
  TRACK 08 AUDIO
    TITLE "Failure"
    PERFORMER "KOBOLD"
    INDEX 00 30:26:73
    INDEX 01 30:27:00
  TRACK 09 AUDIO
    TITLE "The Taste of Copper"
    PERFORMER "KOBOLD"
    INDEX 01 36:24:67
  TRACK 10 AUDIO
    TITLE "Murmur"
    PERFORMER "KOBOLD"
    INDEX 01 42:14:73
  TRACK 11 AUDIO
    TITLE "The Other Side (Biaxial Creep Mix)"
    PERFORMER "KOBOLD"
    INDEX 01 42:57:13
  TRACK 12 AUDIO
    TITLE "Human Cages (Biaxial Creep Mix)"
    PERFORMER "KOBOLD"
    INDEX 00 48:09:39
    INDEX 01 48:10:54

Правила, инструкции, FAQ!!!
Торрент  Добавлен [26 июн 2020, 17:40] Скачать торрент Магнет ссылка
Скачать торрент
[ Размер 13.47 КБ / Просмотров 14 ]

Статус
Проверен 
 
Размер  326.23 МБ
Приватный: Нет (DHT включён)
.torrent скачан  0
 


     Отправить личное сообщение
   
Страница 1 из 1
Показать сообщения за:  Поле сортировки  
Начать новую тему Ответить на тему


Сейчас этот форум просматривают: нет зарегистрированных пользователей и гости: 0


Вы не можете начинать темы
Вы не можете отвечать на сообщения
Вы не можете редактировать свои сообщения
Вы не можете удалять свои сообщения
Вы не можете добавлять вложения

Перейти:  
cron