Начать новую тему Ответить на тему
Статистика раздачи
Размер: 384.59 МБ | Добавлен: 26 июн 2020, 16:49 | Скачали: 0
Сидеров: 0  [0 байт/сек]    Личеров: 0  [0 байт/сек]
Пред. тема | След. тема 

Автор
Сообщение

СообщениеДобавлено: 26 июн 2020, 16:49 

Ответить с цитатой 

IWR / Cold Asylum
Жанр: Electro, Industrial
Страна-производитель диска: Germany
Год издания диска: 2007
Издатель (лейбл): Black Rain
Номер по каталогу: BR 047
Страна: Israel
Аудио кодек: FLAC (*.flac)
Тип рипа: tracks+.cue
Битрейт аудио: lossless
Продолжительность: 53:30
Источник (релизер): CD-R
Наличие сканов в содержимом раздачи: нет
Треклист:
1 Going Mental 4:45
2 Ketamine Sedation 4:00
3 Wreckage 5:27
4 Morning Star 5:23
5 New Dawn 4:58
6 Nemesis 5:59
7 Black City 5:05
8 Going Mental (Space Kmbat Remix) 5:20
9 Ketamine Sedation (Nails Remix) 3:20
10 Wreckage (Wreck Age Remix) 4:00
11 New Dawn (Dark Chamber Remix) 5:04
Код:
Exact Audio Copy V0.99 prebeta 5 from 4. May 2009
EAC extraction logfile from 13. December 2010, 22:44
IWR / Cold Asylum
Used drive  : PIONEER DVD-RW  DVR-216D   Adapter: 0  ID: 0
Read mode               : Secure
Utilize accurate stream : Yes
Defeat audio cache      : Yes
Make use of C2 pointers : No
Read offset correction                      : 96
Overread into Lead-In and Lead-Out          : No
Fill up missing offset samples with silence : Yes
Delete leading and trailing silent blocks   : No
Null samples used in CRC calculations       : Yes
Used interface                              : Native Win32 interface for Win NT & 2000
Gap handling                                : Appended to previous track
Used output format              : User Defined Encoder
Selected bitrate                : 1024 kBit/s
Quality                         : High
Add ID3 tag                     : No
Command line compressor         : C:\Program Files (x86)\Exact Audio Copy\Flac\flac.exe
Additional command line options : -8 -V -T "ARTIST=%a" -T "TITLE=%t" -T "ALBUM=%g" -T "DATE=%y" -T "TRACKNUMBER=%n" -T "GENRE=%m" -T "COMMENT=EAC FLAC -8" %s
TOC of the extracted CD
     Track |   Start  |  Length  | Start sector | End sector
    ---------------------------------------------------------
        1  |  0:00.00 |  4:45.72 |         0    |    21446
        2  |  4:45.72 |  3:59.60 |     21447    |    39431
        3  |  8:45.57 |  5:27.67 |     39432    |    64023
        4  | 14:13.49 |  5:23.73 |     64024    |    88321
        5  | 19:37.47 |  4:58.10 |     88322    |   110681
        6  | 24:35.57 |  6:00.25 |    110682    |   137706
        7  | 30:36.07 |  5:06.47 |    137707    |   160703
        8  | 35:42.54 |  5:21.71 |    160704    |   184849
        9  | 41:04.50 |  3:21.32 |    184850    |   199956
       10  | 44:26.07 |  4:01.21 |    199957    |   218052
       11  | 48:27.28 |  5:02.23 |    218053    |   240725
Track  1
     Filename I:\Audio\TORRENTS\IWR\tracks\ 01. IWR – Going Mental.wav
     Pre-gap length  0:00:02.00
     Peak level 98.8 %
     Track quality 100.0 %
     Test CRC 8A2B899E
     Copy CRC 8A2B899E
     Track not present in AccurateRip database
     Copy OK
Track  2
     Filename I:\Audio\TORRENTS\IWR\tracks\ 02. IWR – Ketamine Sedation.wav
     Peak level 97.7 %
     Track quality 100.0 %
     Test CRC E49112D9
     Copy CRC E49112D9
     Track not present in AccurateRip database
     Copy OK
Track  3
     Filename I:\Audio\TORRENTS\IWR\tracks\ 03. IWR – Wreckage.wav
     Peak level 98.9 %
     Track quality 100.0 %
     Test CRC 2F6107F7
     Copy CRC 2F6107F7
     Track not present in AccurateRip database
     Copy OK
Track  4
     Filename I:\Audio\TORRENTS\IWR\tracks\ 04. IWR – Morning Star.wav
     Peak level 98.8 %
     Track quality 100.0 %
     Test CRC 04C7BFDC
     Copy CRC 04C7BFDC
     Track not present in AccurateRip database
     Copy OK
Track  5
     Filename I:\Audio\TORRENTS\IWR\tracks\ 05. IWR – New Dawn.wav
     Peak level 98.8 %
     Track quality 100.0 %
     Test CRC B6E16DF0
     Copy CRC B6E16DF0
     Track not present in AccurateRip database
     Copy OK
Track  6
     Filename I:\Audio\TORRENTS\IWR\tracks\ 06. IWR – Nemesis.wav
     Peak level 98.8 %
     Track quality 100.0 %
     Test CRC D7BD86F6
     Copy CRC D7BD86F6
     Track not present in AccurateRip database
     Copy OK
Track  7
     Filename I:\Audio\TORRENTS\IWR\tracks\ 07. IWR – Black City.wav
     Peak level 98.8 %
     Track quality 100.0 %
     Test CRC E3063AC0
     Copy CRC E3063AC0
     Track not present in AccurateRip database
     Copy OK
Track  8
     Filename I:\Audio\TORRENTS\IWR\tracks\ 08. IWR – Going Mental (Space Kombat Remix).wav
     Peak level 98.8 %
     Track quality 100.0 %
     Test CRC 44E6D23F
     Copy CRC 44E6D23F
     Track not present in AccurateRip database
     Copy OK
Track  9
     Filename I:\Audio\TORRENTS\IWR\tracks\ 09. IWR – Ketamine Sedation (Nails Remix).wav
     Peak level 97.7 %
     Track quality 100.0 %
     Test CRC 0DA0875D
     Copy CRC 0DA0875D
     Track not present in AccurateRip database
     Copy OK
Track 10
     Filename I:\Audio\TORRENTS\IWR\tracks\ 10. IWR – Wreckage (Wreck Age Remix).wav
     Peak level 98.9 %
     Track quality 100.0 %
     Test CRC 1D1D96F5
     Copy CRC 1D1D96F5
     Track not present in AccurateRip database
     Copy OK
Track 11
     Filename I:\Audio\TORRENTS\IWR\tracks\ 11. IWR – New Dawn (Dark Chamber Remix).wav
     Peak level 98.9 %
     Track quality 100.0 %
     Test CRC 41DB5992
     Copy CRC 41DB5992
     Track not present in AccurateRip database
     Copy OK
None of the tracks are present in the AccurateRip database
No errors occurred
End of status report
Код:
REM GENRE "Dark Elektro"
REM DATE 2007
REM DISCID B30C890B
REM COMMENT "ExactAudioCopy v0.99pb5"
PERFORMER "IWR"
TITLE "Cold Asylum"
FILE " 01. IWR – Going Mental.wav" WAVE
  TRACK 01 AUDIO
    TITLE "Going Mental"
    PERFORMER "IWR"
    INDEX 01 00:00:00
FILE " 02. IWR – Ketamine Sedation.wav" WAVE
  TRACK 02 AUDIO
    TITLE "Ketamine Sedation"
    PERFORMER "IWR"
    INDEX 01 00:00:00
FILE " 03. IWR – Wreckage.wav" WAVE
  TRACK 03 AUDIO
    TITLE "Wreckage"
    PERFORMER "IWR"
    INDEX 01 00:00:00
FILE " 04. IWR – Morning Star.wav" WAVE
  TRACK 04 AUDIO
    TITLE "Morning Star"
    PERFORMER "IWR"
    INDEX 01 00:00:00
FILE " 05. IWR – New Dawn.wav" WAVE
  TRACK 05 AUDIO
    TITLE "New Dawn"
    PERFORMER "IWR"
    INDEX 01 00:00:00
FILE " 06. IWR – Nemesis.wav" WAVE
  TRACK 06 AUDIO
    TITLE "Nemesis"
    PERFORMER "IWR"
    INDEX 01 00:00:00
FILE " 07. IWR – Black City.wav" WAVE
  TRACK 07 AUDIO
    TITLE "Black City"
    PERFORMER "IWR"
    INDEX 01 00:00:00
FILE " 08. IWR – Going Mental (Space Kombat Remix).wav" WAVE
  TRACK 08 AUDIO
    TITLE "Going Mental (Space Kombat Remix)"
    PERFORMER "IWR"
    INDEX 01 00:00:00
FILE " 09. IWR – Ketamine Sedation (Nails Remix).wav" WAVE
  TRACK 09 AUDIO
    TITLE "Ketamine Sedation (Nails Remix)"
    PERFORMER "IWR"
    INDEX 01 00:00:00
FILE " 10. IWR – Wreckage (Wreck Age Remix).wav" WAVE
  TRACK 10 AUDIO
    TITLE "Wreckage (Wreck Age Remix)"
    PERFORMER "IWR"
    INDEX 01 00:00:00
FILE " 11. IWR – New Dawn (Dark Chamber Remix).wav" WAVE
  TRACK 11 AUDIO
    TITLE "New Dawn (Dark Chamber Remix)"
    PERFORMER "IWR"
    INDEX 01 00:00:00
Код:
Started at: понедельник, 13. 12. 2010. - 21:50.43
11 files found
01 -===- track 1 in drive PIONEER DVD-RW  DVR-216D
  Track ripped successfully
  Conclusion: this track is CDDA with probability 100%
  Tempfile successfully deleted.
02 -===- track 2 in drive PIONEER DVD-RW  DVR-216D
  Track ripped successfully
  Conclusion: this track is CDDA with probability 100%
  Tempfile successfully deleted.
03 -===- track 3 in drive PIONEER DVD-RW  DVR-216D
  Track ripped successfully
  Conclusion: this track is CDDA with probability 100%
  Tempfile successfully deleted.
04 -===- track 4 in drive PIONEER DVD-RW  DVR-216D
  Track ripped successfully
  Conclusion: this track is CDDA with probability 100%
  Tempfile successfully deleted.
05 -===- track 5 in drive PIONEER DVD-RW  DVR-216D
  Track ripped successfully
  Conclusion: this track is CDDA with probability 99%
  Tempfile successfully deleted.
06 -===- track 6 in drive PIONEER DVD-RW  DVR-216D
  Track ripped successfully
  Conclusion: this track is CDDA with probability 100%
  Tempfile successfully deleted.
07 -===- track 7 in drive PIONEER DVD-RW  DVR-216D
  Track ripped successfully
  Conclusion: this track is CDDA with probability 100%
  Tempfile successfully deleted.
08 -===- track 8 in drive PIONEER DVD-RW  DVR-216D
  Track ripped successfully
  Conclusion: this track is CDDA with probability 100%
  Tempfile successfully deleted.
09 -===- track 9 in drive PIONEER DVD-RW  DVR-216D
  Track ripped successfully
  Conclusion: this track is CDDA with probability 99%
  Tempfile successfully deleted.
10 -===- track 10 in drive PIONEER DVD-RW  DVR-216D
  Track ripped successfully
  Conclusion: this track is CDDA with probability 100%
  Tempfile successfully deleted.
11 -===- track 11 in drive PIONEER DVD-RW  DVR-216D
  Track ripped successfully
  Conclusion: this track is CDDA with probability 100%
  Tempfile successfully deleted.
Finished at: понедельник, 13. 12. 2010. - 22:03.07 (operation time: 0:12.24)


Доп. информация: http://www.discogs.com/IWR-Cold-Asylum/release/1153119
http://www.myspace.com/iwrband
"Wreckage", "Black City" & "Nemesis" contain samples from audio book "Blood Music" by Greg Bear.
"Going Mental" & "Morning Star" contain samples from animated series "Aeon Flux" by Peter Chung.
Maor Appelbaum, Tal Galfsky
Правила, инструкции, FAQ!!!
Торрент  Добавлен [26 июн 2020, 16:49] Скачать торрент Магнет ссылка
Скачать торрент
[ Размер 16.7 КБ / Просмотров 3 ]

Статус
Проверен 
 
Размер  384.59 МБ
Приватный: Нет (DHT включён)
.torrent скачан  0
 


     Отправить личное сообщение
   
Страница 1 из 1
Показать сообщения за:  Поле сортировки  
Начать новую тему Ответить на тему


Сейчас этот форум просматривают: нет зарегистрированных пользователей и гости: 0


Вы не можете начинать темы
Вы не можете отвечать на сообщения
Вы не можете редактировать свои сообщения
Вы не можете удалять свои сообщения
Вы не можете добавлять вложения

Перейти:  
cron