Начать новую тему Ответить на тему
Статистика раздачи
Размер: 427.44 МБ | Добавлен: 26 июн 2020, 16:59 | Скачали: 0
Сидеров: 0  [0 байт/сек]    Личеров: 0  [0 байт/сек]
Пред. тема | След. тема 

Автор
Сообщение

СообщениеДобавлено: 26 июн 2020, 16:59 

Ответить с цитатой 

Ad Inferna / Trance-N-Dance
Жанр: electro industrial
Страна-производитель диска: Italy
Год издания диска: 2009
Издатель (лейбл): DreamCell 11
Номер по каталогу: DC 1109-07
Аудио кодек: FLAC (*.flac)
Тип рипа: image+.cue
Битрейт аудио: lossless
Продолжительность: 54:51.11
Источник (релизер): Физический носитель
Наличие сканов в содержимом раздачи: да
Треклист:
01. Fade To Grey (Visage Cover) [2:47]
02. Metamorphose [4:10]
03. Redemption [5:22]
04. SM For SM [4:14]
05. Suicide Girl [4:24]
06. Transcender L'Extase [4:43]
07. Vertige [4:49]
08. You As My Own Drug [4:38]
09. Vertige (Beborn Beton rmx) [5:40]
10. Vertige (Combichrist ''NOK'' rmx) [4:39]
11. Transcender L'Extase (Soman rmx) [4:35]
12. Redemption (Reaper ''Bum'' rmx) [4:51]
Код:
Exact Audio Copy V0.99 prebeta 5 from 4. May 2009
Отчёт EAC об извлечении, выполненном 20. декабря 2010, 20:29
Ad Inferna / Trance::N::Dance
Дисковод: Optiarc DVD RW AD-7173A   Adapter: 0  ID: 0
Режим чтения                 : Достоверность
Использование точного потока : Да
Отключение кэша аудио        : Да
Использование указателей C2  : Нет
Коррекция смещения при чтении                     : 48
Способность читать области Lead-in и Lead-out     : Нет
Заполнение пропущенных сэмплов тишиной            : Да
Удаление блоков с тишиной в начале и конце        : Нет
При вычислениях CRC использовались нулевые сэмплы : Да
Интерфейс                                         : Установленный внешний ASPI-интерфейс
Выходной формат          : Пользовательский кодировщик
Выбранный битрейт        : 1024 kBit/s
Качество                 : Высокий
Добавление ID3-тэга      : Нет
Утилита сжатия           : C:\Program Files\Exact Audio Copy\flac.exe
Дополнительные параметры : -6 -V -T "ARTIST=%a" -T "TITLE=%t" -T "ALBUM=%g" -T "DATE=%y" -T "TRACKNUMBER=%n" -T "GENRE=%m" -T "COMMENT=%e" %s -o %d
TOC извлечённого CD
     Трек |   Старт  | Длительность | Начальный сектор | Конечный сектор
    ---------------------------------------------------------------------
       1  |  0:00.00 |    2:46.48   |           0      |      12497
       2  |  2:46.48 |    4:09.67   |       12498      |      31239
       3  |  6:56.40 |    5:21.72   |       31240      |      55386
       4  | 12:18.37 |    4:14.01   |       55387      |      74437
       5  | 16:32.38 |    4:23.64   |       74438      |      94226
       6  | 20:56.27 |    4:42.72   |       94227      |     115448
       7  | 25:39.24 |    4:48.52   |      115449      |     137100
       8  | 30:28.01 |    4:37.72   |      137101      |     157947
       9  | 35:05.73 |    5:39.71   |      157948      |     183443
      10  | 40:45.69 |    4:39.29   |      183444      |     204397
      11  | 45:25.23 |    4:34.51   |      204398      |     224998
      12  | 49:59.74 |    4:51.12   |      224999      |     246835
Характеристики диапазона извлечения и сообщения об ошибках
Выбранный диапазон
     Имя файла H:\СКАЧКА\FLAC\1 TORRENT\Ad Inferna - Trance-N-Dance.wav
     Пиковый уровень 99.0 %
     Качество диапазона 99.9 %
     CRC теста 8BDD680C
     CRC копии 8BDD680C
     Копирование... OK
Ошибок не произошло
AccurateRip: сводка
Трек  1  точное извлечение (доверие 1)  [DF5891BB]
Трек  2  точное извлечение (доверие 1)  [7A2A7185]
Трек  3  точное извлечение (доверие 1)  [F72A5DF7]
Трек  4  точное извлечение (доверие 1)  [D3E784FE]
Трек  5  точное извлечение (доверие 1)  [16283A5F]
Трек  6  точное извлечение (доверие 1)  [1AD5C330]
Трек  7  точное извлечение (доверие 1)  [D6E1F2E4]
Трек  8  точное извлечение (доверие 1)  [1AC02C83]
Трек  9  точное извлечение (доверие 1)  [513A6F45]
Трек 10  точное извлечение (доверие 1)  [368AA5F1]
Трек 11  точное извлечение (доверие 1)  [FA03B28E]
Трек 12  точное извлечение (доверие 1)  [8F036306]
Все треки извлечены точно
Конец отчёта
Правила, инструкции, FAQ!!!
Торрент  Добавлен [26 июн 2020, 16:59] Скачать торрент Магнет ссылка
Скачать торрент
[ Размер 17.78 КБ / Просмотров 4 ]

Статус
Проверен 
 
Размер  427.44 МБ
Приватный: Нет (DHT включён)
.torrent скачан  0
 


     Отправить личное сообщение
   
Страница 1 из 1
Показать сообщения за:  Поле сортировки  
Начать новую тему Ответить на тему


Сейчас этот форум просматривают: нет зарегистрированных пользователей и гости: 0


Вы не можете начинать темы
Вы не можете отвечать на сообщения
Вы не можете редактировать свои сообщения
Вы не можете удалять свои сообщения
Вы не можете добавлять вложения

Перейти:  
cron