Начать новую тему Ответить на тему
Статистика раздачи
Размер: 445.91 МБ | Добавлен: 26 июн 2020, 20:41 | Скачали: 0
Сидеров: 0  [0 байт/сек]    Личеров: 0  [0 байт/сек]
Пред. тема | След. тема 

Автор
Сообщение

СообщениеДобавлено: 26 июн 2020, 20:41 

Ответить с цитатой 

Ad Inferna / DSM
Жанр: electro industrial
Страна-производитель диска: USA
Год издания диска: 2010
Издатель (лейбл): Nilaihah Records
Номер по каталогу: NR46
Аудио кодек: FLAC (*.flac)
Тип рипа: image+.cue
Битрейт аудио: lossless
Продолжительность: 58:31.20
Источник (релизер): Физический носитель
Наличие сканов в содержимом раздачи: да
Треклист:
01. Premices [1:25]
02. Omniscience [4:03]
03. Der Ball Der Verdammten [5:36]
04. The Second Half Of The Sky [6:07]
05. The Other Side Of Me [5:18]
06. Crime Body [4:58]
07. Celeste [5:18]
08. Dimension Zero [1:07]
09. Verklarte [3:39]
10. Coma (La Fin Des Reves) [5:31]
11. Crime Body (remix by Suicidal Romance) [6:38]
12. Verklarte (remix by Cellmod) [4:06]
13. Omniscience (remix by Psy Coma) [4:45]
Код:
Exact Audio Copy V0.99 prebeta 5 from 4. May 2009
Отчёт EAC об извлечении, выполненном 24. сентября 2010, 19:37
Ad Inferna / DSM
Дисковод: Optiarc DVD RW AD-7173A   Adapter: 0  ID: 0
Режим чтения                 : Достоверность
Использование точного потока : Да
Отключение кэша аудио        : Да
Использование указателей C2  : Нет
Коррекция смещения при чтении                     : 48
Способность читать области Lead-in и Lead-out     : Нет
Заполнение пропущенных сэмплов тишиной            : Да
Удаление блоков с тишиной в начале и конце        : Нет
При вычислениях CRC использовались нулевые сэмплы : Да
Интерфейс                                         : Установленный внешний ASPI-интерфейс
Выходной формат          : Пользовательский кодировщик
Выбранный битрейт        : 1024 kBit/s
Качество                 : Высокий
Добавление ID3-тэга      : Нет
Утилита сжатия           : C:\Program Files\Exact Audio Copy\flac.exe
Дополнительные параметры : -6 -V -T "ARTIST=%a" -T "TITLE=%t" -T "ALBUM=%g" -T "DATE=%y" -T "TRACKNUMBER=%n" -T "GENRE=%m" -T "COMMENT=%e" %s -o %d
TOC извлечённого CD
     Трек |   Старт  | Длительность | Начальный сектор | Конечный сектор
    ---------------------------------------------------------------------
       1  |  0:00.00 |    1:25.12   |           0      |       6386
       2  |  1:25.12 |    4:03.01   |        6387      |      24612
       3  |  5:28.13 |    5:35.39   |       24613      |      49776
       4  | 11:03.52 |    6:07.21   |       49777      |      77322
       5  | 17:10.73 |    5:17.43   |       77323      |     101140
       6  | 22:28.41 |    4:57.63   |      101141      |     123478
       7  | 27:26.29 |    5:18.36   |      123479      |     147364
       8  | 32:44.65 |    1:06.65   |      147365      |     152379
       9  | 33:51.55 |    3:39.13   |      152380      |     168817
      10  | 37:30.68 |    5:31.05   |      168818      |     193647
      11  | 43:01.73 |    6:38.05   |      193648      |     223502
      12  | 49:40.03 |    4:05.67   |      223503      |     241944
      13  | 53:45.70 |    4:45.25   |      241945      |     263344
Характеристики диапазона извлечения и сообщения об ошибках
Выбранный диапазон
     Имя файла H:\СКАЧКА\FLAC\1 TORRENT\Ad Inferna - DSM.wav
     Пиковый уровень 100.0 %
     Качество диапазона 99.9 %
     CRC теста A68E8C72
     CRC копии A68E8C72
     Копирование... OK
Ошибок не произошло
AccurateRip: сводка
Трек  1  нет в базе данных
Трек  2  нет в базе данных
Трек  3  нет в базе данных
Трек  4  нет в базе данных
Трек  5  нет в базе данных
Трек  6  нет в базе данных
Трек  7  нет в базе данных
Трек  8  нет в базе данных
Трек  9  нет в базе данных
Трек 10  нет в базе данных
Трек 11  нет в базе данных
Трек 12  нет в базе данных
Трек 13  нет в базе данных
Ни одного трека нет в базе AccurateRip
Конец отчёта
Правила, инструкции, FAQ!!!
Торрент  Добавлен [26 июн 2020, 20:41] Скачать торрент Магнет ссылка
Скачать торрент
[ Размер 18.38 КБ / Просмотров 8 ]

Статус
Проверен 
 
Размер  445.91 МБ
Приватный: Нет (DHT включён)
.torrent скачан  0
 


     Отправить личное сообщение
   
Страница 1 из 1
Показать сообщения за:  Поле сортировки  
Начать новую тему Ответить на тему


Сейчас этот форум просматривают: нет зарегистрированных пользователей и гости: 0


Вы не можете начинать темы
Вы не можете отвечать на сообщения
Вы не можете редактировать свои сообщения
Вы не можете удалять свои сообщения
Вы не можете добавлять вложения

Перейти:  
cron