Начать новую тему Ответить на тему
Статистика раздачи
Размер: 731.56 МБ | Добавлен: 26 июн 2020, 17:32 | Скачали: 0
Сидеров: 0  [0 байт/сек]    Личеров: 0  [0 байт/сек]
Пред. тема | След. тема 

Автор
Сообщение

СообщениеДобавлено: 26 июн 2020, 17:32 

Ответить с цитатой 

VA - Industrial for the Masses (2CD Ltd.Ed.)
Жанр: Electro, Industrial
Год выпуска диска: 2006
Производитель диска: Germany
Аудио кодек: APE
Тип рипа: image+.cue
Битрейт аудио: lossless
Продолжительность: 76:05 + 21:57
Трэклист:
CD 01:
01. Combichrist - Electrohead (5:53)
02. Basteroid - Rabimmel (6:54)
03. UnterART - Der Morgen (3:40)
04. Dulce Liquido - Serial Killer (4:50)
05. Chris Liebing / Speedy J - Tunox (6:58)
06. MOTOR - Punkture (4:54)
07. KiEw - Mr. 29 (Feat. Ambassador 21) (4:02)
08. Terence Fixmer - The Calling (Edit) (4:29)
09. Edelstahl - Drehstrom (Radio Edit) (4:54)
10. The Horrorist - Body To Body (Stamba Remix) (5:22)
11. Esplendor Geométrico - Moscú Está Helado (The Hacker Version) (5:20)
12. Maelstrom Inc. - Afraid Of Us (4:46)
13. 13th Monkey - Tremor (6:17)
14. Ada - I Love Asphalt (7:39)
Код:
Exact Audio Copy V0.99 prebeta 5 from 4. May 2009
Отчёт EAC об извлечении, выполненном 15. февраля 2010, 22:15
Various / INDUSTRIAL FOR MASSES VOL:3
Дисковод: ATAPI   iHAS124   Y   Adapter: 1  ID: 1
Режим чтения                 : Достоверность
Использование точного потока : Да
Отключение кэша аудио        : Да
Использование указателей C2  : Нет
Коррекция смещения при чтении                     : 48
Способность читать области Lead-in и Lead-out     : Нет
Заполнение пропущенных сэмплов тишиной            : Да
Удаление блоков с тишиной в начале и конце        : Нет
При вычислениях CRC использовались нулевые сэмплы : Да
Интерфейс                                         : Встроенный Win32-интерфейс для Win NT/2000
Выходной формат : Внутренние WAV-операции
Формат сэмплов  : 44.100 Гц; 16 бит; стерео
TOC извлечённого CD
     Трек |   Старт  | Длительность | Начальный сектор | Конечный сектор
    ---------------------------------------------------------------------
       1  |  0:00.00 |    5:53.37   |           0      |      26511
       2  |  5:53.37 |    6:54.34   |       26512      |      57595
       3  | 12:47.71 |    3:40.36   |       57596      |      74131
       4  | 16:28.32 |    4:50.31   |       74132      |      95912
       5  | 21:18.63 |    6:58.68   |       95913      |     127330
       6  | 28:17.56 |    4:54.49   |      127331      |     149429
       7  | 33:12.30 |    4:02.55   |      149430      |     167634
       8  | 37:15.10 |    4:29.48   |      167635      |     187857
       9  | 41:44.58 |    4:54.62   |      187858      |     209969
      10  | 46:39.45 |    5:22.23   |      209970      |     234142
      11  | 52:01.68 |    5:20.64   |      234143      |     258206
      12  | 57:22.57 |    4:46.27   |      258207      |     279683
      13  | 62:09.09 |    6:17.09   |      279684      |     307967
      14  | 68:26.18 |    7:39.52   |      307968      |     342444
Характеристики диапазона извлечения и сообщения об ошибках
Выбранный диапазон
     Имя файла E:\! РАЗДАЧИ\Various - INDUSTRIAL FOR MASSES VOL 3\Various - INDUSTRIAL FOR MASSES VOL 3.wav
     Пиковый уровень 100.0 %
     Качество диапазона 100.0 %
     CRC теста 57843C1A
     CRC копии 57843C1A
     Копирование... OK
Ошибок не произошло
AccurateRip: сводка
Трек  1  нет в базе данных
Трек  2  нет в базе данных
Трек  3  нет в базе данных
Трек  4  нет в базе данных
Трек  5  нет в базе данных
Трек  6  нет в базе данных
Трек  7  нет в базе данных
Трек  8  нет в базе данных
Трек  9  нет в базе данных
Трек 10  нет в базе данных
Трек 11  нет в базе данных
Трек 12  нет в базе данных
Трек 13  нет в базе данных
Трек 14  нет в базе данных
Ни одного трека нет в базе AccurateRip
Конец отчёта
CD 02:
01. NorthBorne - The Pill (Radio Edit) (4:15)
02. NorthBorne - Trucks (V. Onepointzero) (4:02)
03. NorthBorne - The Pill (Remix By UnterART) (3:55)
04. NorthBorne - The Pill (GBH Mix By Mark S. Jackson) (4:43)
05. NorthBorne - The Pill (Diskonnekted Mix) (5:01)
Код:
Exact Audio Copy V0.99 prebeta 5 from 4. May 2009
Отчёт EAC об извлечении, выполненном 15. февраля 2010, 22:30
Northborne / The Pill
Дисковод: ATAPI   iHAS124   Y   Adapter: 1  ID: 1
Режим чтения                 : Достоверность
Использование точного потока : Да
Отключение кэша аудио        : Да
Использование указателей C2  : Нет
Коррекция смещения при чтении                     : 48
Способность читать области Lead-in и Lead-out     : Нет
Заполнение пропущенных сэмплов тишиной            : Да
Удаление блоков с тишиной в начале и конце        : Нет
При вычислениях CRC использовались нулевые сэмплы : Да
Интерфейс                                         : Встроенный Win32-интерфейс для Win NT/2000
Выходной формат : Внутренние WAV-операции
Формат сэмплов  : 44.100 Гц; 16 бит; стерео
TOC извлечённого CD
     Трек |   Старт  | Длительность | Начальный сектор | Конечный сектор
    ---------------------------------------------------------------------
       1  |  0:00.00 |    4:15.23   |           0      |      19147
       2  |  4:15.23 |    4:02.02   |       19148      |      37299
       3  |  8:17.25 |    3:55.57   |       37300      |      54981
       4  | 12:13.07 |    4:43.27   |       54982      |      76233
       5  | 16:56.34 |    5:01.00   |       76234      |      98808
Характеристики диапазона извлечения и сообщения об ошибках
Выбранный диапазон
     Имя файла E:\! РАЗДАЧИ\Various - INDUSTRIAL FOR MASSES VOL 3\Northborne - The Pill.wav
     Пиковый уровень 100.0 %
     Качество диапазона 100.0 %
     CRC теста 74498402
     CRC копии 74498402
     Копирование... OK
Ошибок не произошло
AccurateRip: сводка
Трек  1  нет в базе данных
Трек  2  нет в базе данных
Трек  3  нет в базе данных
Трек  4  нет в базе данных
Трек  5  нет в базе данных
Ни одного трека нет в базе AccurateRip
Конец отчёта
Доп. информация:
Free bonus CD is presented as NorthBorne - The Pill.
Released as digipak.
(p) 2006 Out of Line
Out 237|238
Distributed by SPV
SPV DCD 320372
сканы 300dpi прилагаются
Правила, инструкции, FAQ!!!
Торрент  Добавлен [26 июн 2020, 17:32] Скачать торрент Магнет ссылка
Скачать торрент
[ Размер 29.98 КБ / Просмотров 9 ]

Статус
Проверен 
 
Размер  731.56 МБ
Приватный: Нет (DHT включён)
.torrent скачан  0
 


     Отправить личное сообщение
   
Страница 1 из 1
Показать сообщения за:  Поле сортировки  
Начать новую тему Ответить на тему


Сейчас этот форум просматривают: нет зарегистрированных пользователей и гости: 0


Вы не можете начинать темы
Вы не можете отвечать на сообщения
Вы не можете редактировать свои сообщения
Вы не можете удалять свои сообщения
Вы не можете добавлять вложения

Перейти:  
cron