Начать новую тему Ответить на тему
Статистика раздачи
Размер: 389.02 МБ | Добавлен: 26 июн 2020, 17:32 | Скачали: 0
Сидеров: 0  [0 байт/сек]    Личеров: 0  [0 байт/сек]
Пред. тема | След. тема 

Автор
Сообщение

СообщениеДобавлено: 26 июн 2020, 17:32 

Ответить с цитатой 

Impact Pulse / Optimal Contrast
Жанр: electro industrial
Страна-производитель диска: Hungary
Год издания диска: 2008
Издатель (лейбл): Advoxya Records
Номер по каталогу: AD-HUN-18-CD
Аудио кодек: FLAC (*.flac)
Тип рипа: image+.cue
Битрейт аудио: lossless
Продолжительность: 48:59.56
Источник (релизер): Физический носитель
Наличие сканов в содержимом раздачи: да
Треклист:
01. I Want You [4:07]
02. Golden Zombie [5:15]
03. Till We Die [5:01]
04. I See Your Love (feat. Serena Grub) [4:52]
05. Mad Hunt [5:41]
06. Impact Nation [5:04]
07. Silvervoice [5:45]
08. New Delight (feat. Der Feind) [4:15]
09. The Blinds Prayer [4:53]
10. The Flame Of Passion [4:07]
Код:
Exact Audio Copy V0.99 prebeta 5 from 4. May 2009
Отчёт EAC об извлечении, выполненном 22. декабря 2010, 21:26
Impact Pulse / Optimal Contrast
Дисковод: Optiarc DVD RW AD-7173A   Adapter: 0  ID: 0
Режим чтения                 : Достоверность
Использование точного потока : Да
Отключение кэша аудио        : Да
Использование указателей C2  : Нет
Коррекция смещения при чтении                     : 48
Способность читать области Lead-in и Lead-out     : Нет
Заполнение пропущенных сэмплов тишиной            : Да
Удаление блоков с тишиной в начале и конце        : Нет
При вычислениях CRC использовались нулевые сэмплы : Да
Интерфейс                                         : Установленный внешний ASPI-интерфейс
Выходной формат          : Пользовательский кодировщик
Выбранный битрейт        : 1024 kBit/s
Качество                 : Высокий
Добавление ID3-тэга      : Нет
Утилита сжатия           : C:\Program Files\Exact Audio Copy\flac.exe
Дополнительные параметры : -6 -V -T "ARTIST=%a" -T "TITLE=%t" -T "ALBUM=%g" -T "DATE=%y" -T "TRACKNUMBER=%n" -T "GENRE=%m" -T "COMMENT=%e" %s -o %d
TOC извлечённого CD
     Трек |   Старт  | Длительность | Начальный сектор | Конечный сектор
    ---------------------------------------------------------------------
       1  |  0:00.00 |    4:06.69   |           0      |      18518
       2  |  4:06.69 |    5:14.51   |       18519      |      42119
       3  |  9:21.45 |    5:01.04   |       42120      |      64698
       4  | 14:22.49 |    4:52.25   |       64699      |      86623
       5  | 19:14.74 |    5:41.28   |       86624      |     112226
       6  | 24:56.27 |    5:04.14   |      112227      |     135040
       7  | 30:00.41 |    5:44.54   |      135041      |     160894
       8  | 35:45.20 |    4:14.49   |      160895      |     179993
       9  | 39:59.69 |    4:52.73   |      179994      |     201966
      10  | 44:52.67 |    4:06.64   |      201967      |     220480
Характеристики диапазона извлечения и сообщения об ошибках
Выбранный диапазон
     Имя файла H:\СКАЧКА\FLAC\1 TORRENT\Impact Pulse - Optimal Contrast.wav
     Пиковый уровень 97.2 %
     Качество диапазона 99.9 %
     CRC теста C3962EB1
     CRC копии C3962EB1
     Копирование... OK
Ошибок не произошло
AccurateRip: сводка
Трек  1  точное извлечение (доверие 1)  [6E81E302]
Трек  2  точное извлечение (доверие 1)  [B7164418]
Трек  3  точное извлечение (доверие 1)  [6313790D]
Трек  4  точное извлечение (доверие 1)  [A9FEA33C]
Трек  5  точное извлечение (доверие 1)  [D00ACB69]
Трек  6  точное извлечение (доверие 1)  [ADCADC85]
Трек  7  точное извлечение (доверие 1)  [6D486F14]
Трек  8  точное извлечение (доверие 1)  [5226E54F]
Трек  9  точное извлечение (доверие 1)  [68E88D9D]
Трек 10  точность не определена (достоверность 1)  [D0D8E766], AccurateRip вернул [6518DFF5]
 9 трек(и) скопированы точно
 1 трек(и) не удалось проверить на точность
Некоторые треки не прошли проверку на точность
Конец отчёта
Правила, инструкции, FAQ!!!
Торрент  Добавлен [26 июн 2020, 17:32] Скачать торрент Магнет ссылка
Скачать торрент
[ Размер 16.23 КБ / Просмотров 12 ]

Статус
Проверен 
 
Размер  389.02 МБ
Приватный: Нет (DHT включён)
.torrent скачан  0
 


     Отправить личное сообщение
   
Страница 1 из 1
Показать сообщения за:  Поле сортировки  
Начать новую тему Ответить на тему


Сейчас этот форум просматривают: нет зарегистрированных пользователей и гости: 0


Вы не можете начинать темы
Вы не можете отвечать на сообщения
Вы не можете редактировать свои сообщения
Вы не можете удалять свои сообщения
Вы не можете добавлять вложения

Перейти:  
cron