Начать новую тему Ответить на тему
Статистика раздачи
Размер: 416.06 МБ | Добавлен: 26 июн 2020, 17:32 | Скачали: 0
Сидеров: 0  [0 байт/сек]    Личеров: 0  [0 байт/сек]
Пред. тема | След. тема 

Автор
Сообщение

СообщениеДобавлено: 26 июн 2020, 17:32 

Ответить с цитатой 

Impact Pulse / [Pulse]ing Module's
Жанр: electro industrial
Страна-производитель диска: Hungary
Год издания диска: 2006
Издатель (лейбл): Advoxya Records
Номер по каталогу: AD-HUN-03-CD
Аудио кодек: FLAC (*.flac)
Тип рипа: image+.cue
Битрейт аудио: lossless
Продолжительность: 51:11.69
Источник (релизер): Физический носитель
Наличие сканов в содержимом раздачи: да
Треклист:
01. Slaves To Force [5:14]
02. Without Fear [4:53]
03. Control [5:29]
04. Hate [5:07]
05. Come [5:37]
06. My World (feat. Linda Daemon Of Drugzone) [4:53]
07. The Prince [4:14]
08. Tears Of Confusion [6:03]
09. Stronger (feat. Von Schwarzkopf) [4:56]
10. Without Fear (Nothing Nada mix) [4:45]
Код:
Exact Audio Copy V0.99 prebeta 5 from 4. May 2009
Отчёт EAC об извлечении, выполненном 31. октября 2010, 9:18
Impact Pulse / [Pulse]ing Module's
Дисковод: Optiarc DVD RW AD-7173A   Adapter: 0  ID: 0
Режим чтения                 : Достоверность
Использование точного потока : Да
Отключение кэша аудио        : Да
Использование указателей C2  : Нет
Коррекция смещения при чтении                     : 48
Способность читать области Lead-in и Lead-out     : Нет
Заполнение пропущенных сэмплов тишиной            : Да
Удаление блоков с тишиной в начале и конце        : Нет
При вычислениях CRC использовались нулевые сэмплы : Да
Интерфейс                                         : Установленный внешний ASPI-интерфейс
Выходной формат          : Пользовательский кодировщик
Выбранный битрейт        : 1024 kBit/s
Качество                 : Высокий
Добавление ID3-тэга      : Нет
Утилита сжатия           : C:\Program Files\Exact Audio Copy\flac.exe
Дополнительные параметры : -6 -V -T "ARTIST=%a" -T "TITLE=%t" -T "ALBUM=%g" -T "DATE=%y" -T "TRACKNUMBER=%n" -T "GENRE=%m" -T "COMMENT=%e" %s -o %d
TOC извлечённого CD
     Трек |   Старт  | Длительность | Начальный сектор | Конечный сектор
    ---------------------------------------------------------------------
       1  |  0:00.00 |    5:14.37   |           0      |      23586
       2  |  5:14.37 |    4:53.37   |       23587      |      45598
       3  | 10:07.74 |    5:29.00   |       45599      |      70273
       4  | 15:36.74 |    5:07.00   |       70274      |      93298
       5  | 20:43.74 |    5:37.00   |       93299      |     118573
       6  | 26:20.74 |    4:53.37   |      118574      |     140585
       7  | 31:14.36 |    4:14.00   |      140586      |     159635
       8  | 35:28.36 |    6:02.69   |      159636      |     186854
       9  | 41:31.30 |    4:55.56   |      186855      |     209035
      10  | 46:27.11 |    4:44.58   |      209036      |     230393
Характеристики диапазона извлечения и сообщения об ошибках
Выбранный диапазон
     Имя файла H:\СКАЧКА\FLAC\1 TORRENT\Impact Pulse - [Pulse]ing Module's.wav
     Пиковый уровень 99.3 %
     Качество диапазона 99.9 %
     CRC теста BEE73BDB
     CRC копии BEE73BDB
     Копирование... OK
Ошибок не произошло
AccurateRip: сводка
Трек  1  нет в базе данных
Трек  2  нет в базе данных
Трек  3  нет в базе данных
Трек  4  нет в базе данных
Трек  5  нет в базе данных
Трек  6  нет в базе данных
Трек  7  нет в базе данных
Трек  8  нет в базе данных
Трек  9  нет в базе данных
Трек 10  нет в базе данных
Ни одного трека нет в базе AccurateRip
Конец отчёта
Правила, инструкции, FAQ!!!
Торрент  Добавлен [26 июн 2020, 17:32] Скачать торрент Магнет ссылка
Скачать торрент
[ Размер 17.29 КБ / Просмотров 8 ]

Статус
Проверен 
 
Размер  416.06 МБ
Приватный: Нет (DHT включён)
.torrent скачан  0
 


     Отправить личное сообщение
   
Страница 1 из 1
Показать сообщения за:  Поле сортировки  
Начать новую тему Ответить на тему


Сейчас этот форум просматривают: нет зарегистрированных пользователей и гости: 0


Вы не можете начинать темы
Вы не можете отвечать на сообщения
Вы не можете редактировать свои сообщения
Вы не можете удалять свои сообщения
Вы не можете добавлять вложения

Перейти:  
cron