Начать новую тему Ответить на тему
Статистика раздачи
Размер: 476.06 МБ | Добавлен: 26 июн 2020, 17:48 | Скачали: 0
Сидеров: 0  [0 байт/сек]    Личеров: 0  [0 байт/сек]
Пред. тема | След. тема 

Автор
Сообщение

СообщениеДобавлено: 26 июн 2020, 17:48 

Ответить с цитатой 

Samhain - Violent Identity
Жанр: Electro-Industrial, IDM
Год выпуска диска: 2006
Производитель диска: Slovakia (Aliens Production)
Аудио кодек: FLAC
Тип рипа: image+.cue
Битрейт аудио: lossless
Продолжительность: 1:12:23
Треклист:
01. Undefinable 6:49
02. Wince 7:46
03. Impression 7:17
04. Veil 2:08
05. Underneath The Earth 6:20
06. Apparition 5:47
07. Wicked Design 7:26
08. Subsist 6:17
09. Bridge 6:28
10. No Load 4:07
11. Your Die 6:46
12. Invoke 5:00
Samhain - словацкая группа из трёх человек, основанная в 1996 году. Все они были весьма активными фигурами в музыкальном андеграунде, участвуя в таких проектах как Kifoth, Loct In и Last Influence Of Brain. ”Violent Identity” - их дебютный альбом, но некоторые треки с него можно было услышать ранее на сборниках ”Overflow” (Polymorph Records) и ”Signs” (Aliens Productions). Основное качество музыки Samhain - её постоянная изменчивость, однако везде чувствуется индустриально-шумовое прошлое участников: и в комплексной атмосферике, и в ритмических рисунках, и в кристально-чистых электронных пассажах, и в вокале, обработанном всякими эффектами.
Код:
Exact Audio Copy V0.99 prebeta 4 from 23. January 2008
Отчёт EAC об извлечении, выполненном 26. июля 2010, 11:44
Samhain / Violent Identity
Дисковод: ASUS    DRW-24B1ST   Adapter: 0  ID: 1
Режим чтения                 : Достоверность
Использование точного потока : Да
Отключение кэша аудио        : Да
Использование указателей C2  : Нет
Коррекция смещения при чтении                     : 6
Способность читать области Lead-in и Lead-out     : Нет
Заполнение пропущенных сэмплов тишиной            : Да
Удаление блоков с тишиной в начале и конце        : Нет
При вычислениях CRC использовались нулевые сэмплы : Да
Интерфейс                                         : Встроенный Win32-интерфейс для Win NT/2000
Выходной формат          : Пользовательский кодировщик
Выбранный битрейт        : 1024 kBit/s
Качество                 : Высокий
Добавление ID3-тэга      : Нет
Утилита сжатия           : C:\Program Files\Exact Audio Copy\Flac\flac.exe
Дополнительные параметры : -8 -V -T "ARTIST=%a" -T "TITLE=%t" -T "ALBUM=%g" -T "DATE=%y" -T "TRACKNUMBER=%n" -T "GENRE=%m" -T "COMMENT=EAC FLAC -8" %s
TOC извлечённого CD
     Трек |   Старт  | Длительность | Начальный сектор | Конечный сектор
    ---------------------------------------------------------------------
       1  |  0:00.00 |    6:50.35   |           0      |      30784
       2  |  6:50.35 |    7:47.09   |       30785      |      65818
       3  | 14:37.44 |    7:17.32   |       65819      |      98625
       4  | 21:55.01 |    2:09.64   |       98626      |     108364
       5  | 24:04.65 |    6:20.21   |      108365      |     136885
       6  | 30:25.11 |    5:48.32   |      136886      |     163017
       7  | 36:13.43 |    7:27.08   |      163018      |     196550
       8  | 43:40.51 |    6:17.50   |      196551      |     224875
       9  | 49:58.26 |    6:29.37   |      224876      |     254087
      10  | 56:27.63 |    4:08.00   |      254088      |     272687
      11  | 60:35.63 |    6:46.31   |      272688      |     303168
      12  | 67:22.19 |    5:00.61   |      303169      |     325729
Характеристики диапазона извлечения и сообщения об ошибках
Выбранный диапазон
     Имя файла D:\EAC\Samhain - Violent Identity\Samhain - Violent Identity.wav
     Пиковый уровень 100.0 %
     Качество диапазона 99.9 %
     CRC копии C5842BD5
     Копирование... OK
Ошибок не произошло
Конец отчёта
Источник: CD-R
Правила, инструкции, FAQ!!!
Торрент  Добавлен [26 июн 2020, 17:48] Скачать торрент Магнет ссылка
Скачать торрент
[ Размер 20.64 КБ / Просмотров 4 ]

Статус
Проверен 
 
Размер  476.06 МБ
Приватный: Нет (DHT включён)
.torrent скачан  0
 


     Отправить личное сообщение
   
Страница 1 из 1
Показать сообщения за:  Поле сортировки  
Начать новую тему Ответить на тему


Сейчас этот форум просматривают: нет зарегистрированных пользователей и гости: 0


Вы не можете начинать темы
Вы не можете отвечать на сообщения
Вы не можете редактировать свои сообщения
Вы не можете удалять свои сообщения
Вы не можете добавлять вложения

Перейти:  
cron