Начать новую тему Ответить на тему
Статистика раздачи
Размер: 501.48 МБ | Добавлен: 26 июн 2020, 20:42 | Скачали: 0
Сидеров: 0  [0 байт/сек]    Личеров: 0  [0 байт/сек]
Пред. тема | След. тема 

Автор
Сообщение

СообщениеДобавлено: 26 июн 2020, 20:42 

Ответить с цитатой 

Hioctan - Under Control
Жанр: Electro, Industrial
Год выпуска диска: 2010
Производитель диска: Germany
Аудио кодек: FLAC
Тип рипа: image+.cue
Битрейт аудио: lossless
Продолжительность:01:06:41
Трэклист:
01. Pax Veritas 2:23
02. Damned Society 5:15
03. Passion Of Cruelty 5:20
04. Under Control 5:31
05. Collison 4:46
06. Sonderbehandlung 4:37
07. Pax Americana 5:01
08. Sleepless 4:40
09. The Great Deception 4:32
10. Pretender 5:09
11. Sacred Attraction 4:58
12. Aim Of Life 5:04
13. Shine On Me (2010) 5:00
14. Sacrifice My Fear 4:20
Код:
Exact Audio Copy V0.99 prebeta 5 from 4. May 2009
Отчёт EAC об извлечении, выполненном 7. июля 2010, 23:52
Hioctan / Under Control
Дисковод: Optiarc DVD RW AD-7201S   Adapter: 2  ID: 1
Режим чтения                 : Достоверность
Использование точного потока : Да
Отключение кэша аудио        : Да
Использование указателей C2  : Нет
Коррекция смещения при чтении                     : 48
Способность читать области Lead-in и Lead-out     : Нет
Заполнение пропущенных сэмплов тишиной            : Да
Удаление блоков с тишиной в начале и конце        : Нет
При вычислениях CRC использовались нулевые сэмплы : Да
Интерфейс                                         : Встроенный Win32-интерфейс для Win
NT/2000
Выходной формат : Внутренние WAV-операции
Формат сэмплов  : 44.100 Гц; 16 бит; стерео
TOC извлечённого CD
     Трек |   Старт  | Длительность | Начальный сектор | Конечный сектор
    ---------------------------------------------------------------------
       1  |  0:00.00 |    2:23.00   |           0      |      10724
       2  |  2:23.00 |    5:15.56   |       10725      |      34405
       3  |  7:38.56 |    5:20.38   |       34406      |      58443
       4  | 12:59.19 |    5:31.58   |       58444      |      83326
       5  | 18:31.02 |    4:46.01   |       83327      |     104777
       6  | 23:17.03 |    4:37.00   |      104778      |     125552
       7  | 27:54.03 |    5:01.69   |      125553      |     148196
       8  | 32:55.72 |    4:40.39   |      148197      |     169235
       9  | 37:36.36 |    4:32.73   |      169236      |     189708
      10  | 42:09.34 |    5:09.59   |      189709      |     212942
      11  | 47:19.18 |    4:58.26   |      212943      |     235318
      12  | 52:17.44 |    5:04.00   |      235319      |     258118
      13  | 57:21.44 |    5:00.04   |      258119      |     280622
      14  | 62:21.48 |    4:20.05   |      280623      |     300127
Характеристики диапазона извлечения и сообщения об ошибках
Выбранный диапазон
     Имя файла D:\Раздачи\Hioctan - Under Control\Hioctan - Under Control.wav
     Пиковый уровень 98.9 %
     Качество диапазона 99.9 %
     CRC теста 0A4301D9
     CRC копии 0A4301D9
     Копирование... OK
Ошибок не произошло
AccurateRip: сводка
Трек  1  нет в базе данных
Трек  2  нет в базе данных
Трек  3  нет в базе данных
Трек  4  нет в базе данных
Трек  5  нет в базе данных
Трек  6  нет в базе данных
Трек  7  нет в базе данных
Трек  8  нет в базе данных
Трек  9  нет в базе данных
Трек 10  нет в базе данных
Трек 11  нет в базе данных
Трек 12  нет в базе данных
Трек 13  нет в базе данных
Трек 14  нет в базе данных
Ни одного трека нет в базе AccurateRip
Конец отчёта
Код:
Started at: среда, 07. 07. 2010. - 23:56.00
1 file found
1 -===- D:\Раздачи\Hioctan - Under Control\Hioctan - Under Control.flac
  Extracted successfully
  Conclusion: this track is CDDA with probability 100%
  Tempfile successfully deleted.
Finished at: четверг, 08. 07. 2010. - 0:03.24 (operation time: 0:07.23)

Label:NoiTekk
Catalog#:NTK 039
Format:CD, Album
Country:Germany
Released:Feb 2010
Genre:Electronic
Style:Electro, Industrial
Правила, инструкции, FAQ!!!
Торрент  Добавлен [26 июн 2020, 20:42] Скачать торрент Магнет ссылка
Скачать торрент
[ Размер 20.37 КБ / Просмотров 8 ]

Статус
Проверен 
 
Размер  501.48 МБ
Приватный: Нет (DHT включён)
.torrent скачан  0
 


     Отправить личное сообщение
   
Страница 1 из 1
Показать сообщения за:  Поле сортировки  
Начать новую тему Ответить на тему


Сейчас этот форум просматривают: нет зарегистрированных пользователей и гости: 0


Вы не можете начинать темы
Вы не можете отвечать на сообщения
Вы не можете редактировать свои сообщения
Вы не можете удалять свои сообщения
Вы не можете добавлять вложения

Перейти:  
cron