Начать новую тему Ответить на тему
Статистика раздачи
Размер: 427.77 МБ | Добавлен: 26 июн 2020, 20:42 | Скачали: 0
Сидеров: 0  [0 байт/сек]    Личеров: 0  [0 байт/сек]
Пред. тема | След. тема 

Автор
Сообщение

СообщениеДобавлено: 26 июн 2020, 20:42 

Ответить с цитатой 

Hioctan - Concentration Overload
Жанр: Electro, Industrial
Год выпуска диска: 2005
Производитель диска: Germany
Аудио кодек: FLAC
Тип рипа: image+.cue
Битрейт аудио: lossless
Продолжительность: 00:56:30
Трэклист:
01. Mensch:Defekt 3:03
02. Walk Upright 5:21
03. Dogma 4:14
04. Impulse 4:10
05. Flussaufwaerts 4:53
06. Worldpolice 5:12
07. Concentration Overload 5:10
08. Sea Of Anger 5:00
09. Narrow 4:40
10. War Award 5:00
11. Final Impact 4:40
12. Waiting For Death 5:07
Код:
Exact Audio Copy V0.99 prebeta 5 from 4. May 2009
Отчёт EAC об извлечении, выполненном 8. июля 2010, 12:28
Hioctan / Concentration Overload
Дисковод: Optiarc DVD RW AD-7201S   Adapter: 2  ID: 1
Режим чтения                 : Достоверность
Использование точного потока : Да
Отключение кэша аудио        : Да
Использование указателей C2  : Нет
Коррекция смещения при чтении                     : 48
Способность читать области Lead-in и Lead-out     : Нет
Заполнение пропущенных сэмплов тишиной            : Да
Удаление блоков с тишиной в начале и конце        : Нет
При вычислениях CRC использовались нулевые сэмплы : Да
Интерфейс                                         : Встроенный Win32-интерфейс для Win NT/2000
Выходной формат : Внутренние WAV-операции
Формат сэмплов  : 44.100 Гц; 16 бит; стерео
TOC извлечённого CD
     Трек |   Старт  | Длительность | Начальный сектор | Конечный сектор
    ---------------------------------------------------------------------
       1  |  0:00.00 |    3:02.63   |           0      |      13712
       2  |  3:02.63 |    5:21.36   |       13713      |      37823
       3  |  8:24.24 |    4:14.07   |       37824      |      56880
       4  | 12:38.31 |    4:10.03   |       56881      |      75633
       5  | 16:48.34 |    4:52.45   |       75634      |      97578
       6  | 21:41.04 |    5:11.73   |       97579      |     120976
       7  | 26:53.02 |    5:09.54   |      120977      |     144205
       8  | 32:02.56 |    4:59.57   |      144206      |     166687
       9  | 37:02.38 |    4:39.62   |      166688      |     187674
      10  | 41:42.25 |    4:59.74   |      187675      |     210173
      11  | 46:42.24 |    4:39.58   |      210174      |     231156
      12  | 51:22.07 |    5:07.55   |      231157      |     254236
Характеристики диапазона извлечения и сообщения об ошибках
Выбранный диапазон
     Имя файла D:\Раздачи\Hioctan - Concentration Overload\Hioctan - Concentration Overload.wav
     Пиковый уровень 57.5 %
     Качество диапазона 100.0 %
     CRC теста C2F6DBDA
     CRC копии C2F6DBDA
     Копирование... OK
Ошибок не произошло
AccurateRip: сводка
Трек  1  нет в базе данных
Трек  2  нет в базе данных
Трек  3  нет в базе данных
Трек  4  нет в базе данных
Трек  5  нет в базе данных
Трек  6  нет в базе данных
Трек  7  нет в базе данных
Трек  8  нет в базе данных
Трек  9  нет в базе данных
Трек 10  нет в базе данных
Трек 11  нет в базе данных
Трек 12  нет в базе данных
Ни одного трека нет в базе AccurateRip
Конец отчёта
Код:
Started at: четверг, 08. 07. 2010. - 12:30.58
1 file found
1 -===- D:\Раздачи\Hioctan - Concentration Overload\Hioctan - Concentration Overload.flac
  Extracted successfully
  Conclusion: this track is CDDA with probability 99%
  Tempfile successfully deleted.
Finished at: четверг, 08. 07. 2010. - 12:37.31 (operation time: 0:06.33

Label:NoiTekk
Catalog#:NTK 014
Format:CD, Album
Country:Germany
Released:13 Jun 2005
Genre:Electronic
Style:Electro, Industrial
Правила, инструкции, FAQ!!!
Торрент  Добавлен [26 июн 2020, 20:42] Скачать торрент Магнет ссылка
Скачать торрент
[ Размер 17.58 КБ / Просмотров 5 ]

Статус
Проверен 
 
Размер  427.77 МБ
Приватный: Нет (DHT включён)
.torrent скачан  0
 


     Отправить личное сообщение
   
Страница 1 из 1
Показать сообщения за:  Поле сортировки  
Начать новую тему Ответить на тему


Сейчас этот форум просматривают: нет зарегистрированных пользователей и гости: 0


Вы не можете начинать темы
Вы не можете отвечать на сообщения
Вы не можете редактировать свои сообщения
Вы не можете удалять свои сообщения
Вы не можете добавлять вложения

Перейти:  
cron