Начать новую тему Ответить на тему
Статистика раздачи
Размер: 365.21 МБ | Добавлен: 26 июн 2020, 19:56 | Скачали: 0
Сидеров: 0  [0 байт/сек]    Личеров: 0  [0 байт/сек]
Пред. тема | След. тема 

Автор
Сообщение

СообщениеДобавлено: 26 июн 2020, 19:56 

Ответить с цитатой 

God Module - The Magic In My Heart Is Dead (Limited Edition EP, Digipack)
Жанр: Electro, Industrial
Год выпуска диска: 2010
Производитель диска: Out Of Line, Germany
Аудио кодек: FLAC
Тип рипа: image+.cue
Битрейт аудио: lossless
Продолжительность: 0:47:55.27
Треклист:
01. The Magic In My Heart Is Dead 3:11
02. A Minute To Midnight 4:48
03. Art 4:53
04. Skeptical 4:34
05. Me, I Disconnect From You 4:09
06. A Minute To Midnight (Shiv-R Mix) 4:54
07. Art (Ashbury Hieghts Mix) 4:28
08. Skeptical (Project Pitchfork Mix) 4:35
09. Spooky (God Mod Devil Dance Mix) 4:15
10. A Minute To Midnight (System Syn Mix) 3:44
11. Art (Aesthetic Perfection Mix) 4:19
Доп. информация: CD из личной коллекции.
Exact Audio Copy V0.99 prebeta 5 from 4. May 2009
Отчёт EAC об извлечении, выполненном 28. августа 2010, 11:01
God Module / The Magic In My Heart Is Dead EP
Дисковод: TSSTcorpCDDVDW TS-L632H Adapter: 0 ID: 0
Режим чтения : Достоверность
Использование точного потока : Да
Отключение кэша аудио : Да
Использование указателей C2 : Нет
Коррекция смещения при чтении : 6
Способность читать области Lead-in и Lead-out : Нет
Заполнение пропущенных сэмплов тишиной : Да
Удаление блоков с тишиной в начале и конце : Нет
При вычислениях CRC использовались нулевые сэмплы : Да
Интерфейс : Встроенный Win32-интерфейс для Win NT/2000
Выходной формат : Пользовательский кодировщик
Выбранный битрейт : 1024 kBit/s
Качество : Высокий
Добавление ID3-тэга : Нет
Утилита сжатия : C:\Program Files\Exact Audio Copy\FLAC\FLAC.EXE
Дополнительные параметры : -6 -V -T "ARTIST=%a" -T "TITLE=%t" -T "ALBUM=%g" -T "DATE=%y" -T "TRACKNUMBER=%n" -T "GENRE=%m" -T "COMMENT=%e" %s -o %d
TOC извлечённого CD
Трек | Старт | Длительность | Начальный сектор | Конечный сектор
---------------------------------------------------------------------
1 | 0:00.00 | 3:11.52 | 0 | 14376
2 | 3:11.52 | 4:48.26 | 14377 | 36002
3 | 8:00.03 | 4:53.13 | 36003 | 57990
4 | 12:53.16 | 4:34.38 | 57991 | 78578
5 | 17:27.54 | 4:09.53 | 78579 | 97306
6 | 21:37.32 | 4:54.70 | 97307 | 119426
7 | 26:32.27 | 4:28.14 | 119427 | 139540
8 | 31:00.41 | 4:35.32 | 139541 | 160197
9 | 35:35.73 | 4:15.65 | 160198 | 179387
10 | 39:51.63 | 3:44.36 | 179388 | 196223
11 | 43:36.24 | 4:19.03 | 196224 | 215651
Характеристики диапазона извлечения и сообщения об ошибках
Выбранный диапазон
Имя файла C:\Users\Алексей\Desktop\iPOD\God Module - The Magic In My Heart Is Dead EP.wav
Пиковый уровень 99.9 %
Качество диапазона 99.9 %
CRC теста A7E3D185
CRC копии A7E3D185
Копирование... OK
Ошибок не произошло
AccurateRip: сводка
Трек 1 нет в базе данных
Трек 2 нет в базе данных
Трек 3 нет в базе данных
Трек 4 нет в базе данных
Трек 5 нет в базе данных
Трек 6 нет в базе данных
Трек 7 нет в базе данных
Трек 8 нет в базе данных
Трек 9 нет в базе данных
Трек 10 нет в базе данных
Трек 11 нет в базе данных
Ни одного трека нет в базе AccurateRip
Конец отчёта
REM GENRE EBM
REM DATE 2009
REM DISCID A60B3B0B
REM COMMENT "ExactAudioCopy v0.99pb5"
PERFORMER "God Module"
TITLE "The Magic In My Heart Is Dead EP"
FILE "God Module - The Magic In My Heart Is Dead EP.flac" WAVE
TRACK 01 AUDIO
TITLE "The Magic In My Heart Is Dead"
PERFORMER "God Module"
FLAGS DCP
INDEX 01 00:00:00
TRACK 02 AUDIO
TITLE "A Minute To Midnight"
PERFORMER "God Module"
FLAGS DCP
INDEX 01 03:11:52
TRACK 03 AUDIO
TITLE "Art"
PERFORMER "God Module"
FLAGS DCP
INDEX 00 07:58:03
INDEX 01 08:00:03
TRACK 04 AUDIO
TITLE "Skeptical"
PERFORMER "God Module"
FLAGS DCP
INDEX 00 12:51:16
INDEX 01 12:53:16
TRACK 05 AUDIO
TITLE "Me, I Disconnect From You"
PERFORMER "God Module"
FLAGS DCP
INDEX 00 17:25:54
INDEX 01 17:27:54
TRACK 06 AUDIO
TITLE "A Minute To Midnight (shiv-r Mix)"
PERFORMER "God Module"
FLAGS DCP
INDEX 00 21:35:32
INDEX 01 21:37:32
TRACK 07 AUDIO
TITLE "ART (Ashbury Heights Mix)"
PERFORMER "God Module"
FLAGS DCP
INDEX 00 26:30:27
INDEX 01 26:32:27
TRACK 08 AUDIO
TITLE "Skeptical (Project Pitchfork Mix)"
PERFORMER "God Module"
FLAGS DCP
INDEX 00 30:58:41
INDEX 01 31:00:41
TRACK 09 AUDIO
TITLE "Spooky (God Mod Devil Dance Mix)"
PERFORMER "God Module"
FLAGS DCP
INDEX 00 35:33:73
INDEX 01 35:35:73
TRACK 10 AUDIO
TITLE "A Minute To Midnight (System Syn Mix)"
PERFORMER "God Module"
FLAGS DCP
INDEX 00 39:49:63
INDEX 01 39:51:63
TRACK 11 AUDIO
TITLE "ART (Aesthetic Perfection Mix)"
PERFORMER "God Module"
FLAGS DCP
INDEX 00 43:34:24
INDEX 01 43:36:24
AUDIOCHECKER v2.0 beta (build 457) - by Dester - opdester@freemail.hu
~~~~~~~~~~~~~~~~~~~~~~~~~~~~~~~~~~
Начато: суббота, 28. 08. 2010. - 15:09.52
Найдено файлов: 11
01 -===- трек 1 в приводе TSSTcorpCDDVDW TS-L632H
Трек успешно извлечён
Заключение: этот трек - CDDA с вероятностью 100%
Временный файл удалён.
02 -===- трек 2 в приводе TSSTcorpCDDVDW TS-L632H
Трек успешно извлечён
Заключение: этот трек - CDDA с вероятностью 100%
Временный файл удалён.
03 -===- трек 3 в приводе TSSTcorpCDDVDW TS-L632H
Трек успешно извлечён
Заключение: этот трек - CDDA с вероятностью 100%
Временный файл удалён.
04 -===- трек 4 в приводе TSSTcorpCDDVDW TS-L632H
Трек успешно извлечён
Заключение: этот трек - CDDA с вероятностью 100%
Временный файл удалён.
05 -===- трек 5 в приводе TSSTcorpCDDVDW TS-L632H
Трек успешно извлечён
Заключение: этот трек - CDDA с вероятностью 100%
Временный файл удалён.
06 -===- трек 6 в приводе TSSTcorpCDDVDW TS-L632H
Трек успешно извлечён
Заключение: этот трек - CDDA с вероятностью 100%
Временный файл удалён.
07 -===- трек 7 в приводе TSSTcorpCDDVDW TS-L632H
Трек успешно извлечён
Заключение: этот трек - CDDA с вероятностью 100%
Временный файл удалён.
08 -===- трек 8 в приводе TSSTcorpCDDVDW TS-L632H
Трек успешно извлечён
Заключение: этот трек - CDDA с вероятностью 100%
Временный файл удалён.
09 -===- трек 9 в приводе TSSTcorpCDDVDW TS-L632H
Трек успешно извлечён
Заключение: этот трек - CDDA с вероятностью 100%
Временный файл удалён.
10 -===- трек 10 в приводе TSSTcorpCDDVDW TS-L632H
Трек успешно извлечён
Заключение: этот трек - CDDA с вероятностью 100%
Временный файл удалён.
11 -===- трек 11 в приводе TSSTcorpCDDVDW TS-L632H
Трек успешно извлечён
Заключение: этот трек - CDDA с вероятностью 100%
Временный файл удалён.
Завершено: суббота, 28. 08. 2010. - 15:24.00 (Время операции: 0:14.07)
Правила, инструкции, FAQ!!!
Торрент  Добавлен [26 июн 2020, 19:56] Скачать торрент Магнет ссылка
Скачать торрент
[ Размер 14.99 КБ / Просмотров 5 ]

Статус
Проверен 
 
Размер  365.21 МБ
Приватный: Нет (DHT включён)
.torrent скачан  0
 


     Отправить личное сообщение
   
Страница 1 из 1
Показать сообщения за:  Поле сортировки  
Начать новую тему Ответить на тему


Сейчас этот форум просматривают: нет зарегистрированных пользователей и гости: 0


Вы не можете начинать темы
Вы не можете отвечать на сообщения
Вы не можете редактировать свои сообщения
Вы не можете удалять свои сообщения
Вы не можете добавлять вложения

Перейти:  
cron