Начать новую тему Ответить на тему
Статистика раздачи
Размер: 663.48 МБ | Добавлен: 26 июн 2020, 19:55 | Скачали: 0
Сидеров: 0  [0 байт/сек]    Личеров: 0  [0 байт/сек]
Пред. тема | След. тема 

Автор
Сообщение

СообщениеДобавлено: 26 июн 2020, 19:55 

Ответить с цитатой 

God Module / Seance (2CD Limited Edition)
Жанр: Electro, Industrial
Страна-производитель диска: Germany
Год издания диска: 2011
Издатель (лейбл): Out Of Line
Номер по каталогу: OUT 508 | 509
Страна: USA
Аудиокодек: FLAC (*.flac)
Тип рипа: image+.cue
Битрейт аудио: lossless
Продолжительность: 0:53:47.02 + 0:30:58.37
Источник (релизер): 2CD из личной коллекции.
Наличие сканов в содержимом раздачи: да
CD 1 - Seance
01. Ouija 3:51
02. Devil's Night 4:45
03. Plastic 4:15
04. Doppelganger 4:14
05. M.D.K. 5:02
06. Extinct 4:10
07. Rituals 4:15
08. Into The Outside 4:46
09. Video 4:28
10. Remember 4:13
11. Fake Fame 5:03
12. Afraid Of The Light 4:47
CD 2 - Rituals EP
01. Rituals (Distorted Memory Mix) 4:42
02. Devils Night (Modulate B-Ket Mix) 5:37
03. Rituals (White Ring Mix) 3:34
04. Rituals (God Mod Clubbed To Death Mix) 4:27
05. Remember (God Mod Vexed Mix) 4:00
06. Rituals (Ivardensphere Mix) 4:41
07. Rituals (Mordacious Mix) 4:07
Код:
Exact Audio Copy V0.99 prebeta 5 from 4. May 2009
Отчёт EAC об извлечении, выполненном 2. ноября 2011, 16:30
God Module / Seance
Дисковод: TSSTcorpCDDVDW TS-L632H   Adapter: 0  ID: 0
Режим чтения                 : Достоверность
Использование точного потока : Да
Отключение кэша аудио        : Да
Использование указателей C2  : Нет
Коррекция смещения при чтении                     : 6
Способность читать области Lead-in и Lead-out     : Нет
Заполнение пропущенных сэмплов тишиной            : Да
Удаление блоков с тишиной в начале и конце        : Нет
При вычислениях CRC использовались нулевые сэмплы : Да
Интерфейс                                         : Встроенный Win32-интерфейс для Win NT/2000
Выходной формат          : Пользовательский кодировщик
Выбранный битрейт        : 1024 kBit/s
Качество                 : Высокий
Добавление ID3-тэга      : Нет
Утилита сжатия           : C:\Program Files\Exact Audio Copy\FLAC\FLAC.EXE
Дополнительные параметры : -6 -V -T "ARTIST=%a" -T "TITLE=%t" -T "ALBUM=%g" -T "DATE=%y" -T "TRACKNUMBER=%n" -T "GENRE=%m" -T "COMMENT=%e" %s -o %d
TOC извлечённого CD
     Трек |   Старт  | Длительность | Начальный сектор | Конечный сектор
    ---------------------------------------------------------------------
       1  |  0:00.00 |    3:51.20   |           0      |      17344
       2  |  3:51.20 |    4:44.57   |       17345      |      38701
       3  |  8:36.02 |    4:14.57   |       38702      |      57808
       4  | 12:50.59 |    4:13.52   |       57809      |      76835
       5  | 17:04.36 |    5:02.31   |       76836      |      99516
       6  | 22:06.67 |    4:09.51   |       99517      |     118242
       7  | 26:16.43 |    4:15.00   |      118243      |     137367
       8  | 30:31.43 |    4:45.71   |      137368      |     158813
       9  | 35:17.39 |    4:27.44   |      158814      |     178882
      10  | 39:45.08 |    4:12.47   |      178883      |     197829
      11  | 43:57.55 |    5:02.57   |      197830      |     220536
      12  | 49:00.37 |    4:46.40   |      220537      |     242026
Характеристики диапазона извлечения и сообщения об ошибках
Выбранный диапазон
     Имя файла C:\Users\Алексей\Desktop\iPOD\God Module - Seance.wav
     Пиковый уровень 99.9 %
     Качество диапазона 99.9 %
     CRC теста 2BD10F86
     CRC копии 2BD10F86
     Копирование... OK
Ошибок не произошло
AccurateRip: сводка
Трек  1  нет в базе данных
Трек  2  нет в базе данных
Трек  3  нет в базе данных
Трек  4  нет в базе данных
Трек  5  нет в базе данных
Трек  6  нет в базе данных
Трек  7  нет в базе данных
Трек  8  нет в базе данных
Трек  9  нет в базе данных
Трек 10  нет в базе данных
Трек 11  нет в базе данных
Трек 12  нет в базе данных
Ни одного трека нет в базе AccurateRip
Конец отчёта
Код:
Exact Audio Copy V0.99 prebeta 5 from 4. May 2009
Отчёт EAC об извлечении, выполненном 2. ноября 2011, 15:38
God Module / Rituals EP
Дисковод: TSSTcorpCDDVDW TS-L632H   Adapter: 0  ID: 0
Режим чтения                 : Достоверность
Использование точного потока : Да
Отключение кэша аудио        : Да
Использование указателей C2  : Нет
Коррекция смещения при чтении                     : 6
Способность читать области Lead-in и Lead-out     : Нет
Заполнение пропущенных сэмплов тишиной            : Да
Удаление блоков с тишиной в начале и конце        : Нет
При вычислениях CRC использовались нулевые сэмплы : Да
Интерфейс                                         : Встроенный Win32-интерфейс для Win NT/2000
Выходной формат          : Пользовательский кодировщик
Выбранный битрейт        : 1024 kBit/s
Качество                 : Высокий
Добавление ID3-тэга      : Нет
Утилита сжатия           : C:\Program Files\Exact Audio Copy\FLAC\FLAC.EXE
Дополнительные параметры : -6 -V -T "ARTIST=%a" -T "TITLE=%t" -T "ALBUM=%g" -T "DATE=%y" -T "TRACKNUMBER=%n" -T "GENRE=%m" -T "COMMENT=%e" %s -o %d
TOC извлечённого CD
     Трек |   Старт  | Длительность | Начальный сектор | Конечный сектор
    ---------------------------------------------------------------------
       1  |  0:00.00 |    4:40.46   |           0      |      21045
       2  |  4:40.46 |    5:35.37   |       21046      |      46207
       3  | 10:16.08 |    3:32.23   |       46208      |      62130
       4  | 13:48.31 |    4:25.47   |       62131      |      82052
       5  | 18:14.03 |    3:58.17   |       82053      |      99919
       6  | 22:12.20 |    4:39.06   |       99920      |     120850
       7  | 26:51.26 |    4:07.11   |      120851      |     139386
Характеристики диапазона извлечения и сообщения об ошибках
Выбранный диапазон
     Имя файла C:\Users\Алексей\Desktop\iPOD\God Module - Rituals EP.wav
     Пиковый уровень 100.0 %
     Качество диапазона 100.0 %
     CRC теста 0E04BC03
     CRC копии 0E04BC03
     Копирование... OK
Ошибок не произошло
AccurateRip: сводка
Трек  1  нет в базе данных
Трек  2  нет в базе данных
Трек  3  нет в базе данных
Трек  4  нет в базе данных
Трек  5  нет в базе данных
Трек  6  нет в базе данных
Трек  7  нет в базе данных
Ни одного трека нет в базе AccurateRip
Конец отчёта
Код:
REM GENRE "EBM Electro"
REM DATE 2011
REM DISCID A90C9B0C
REM COMMENT "ExactAudioCopy v0.99pb5"
PERFORMER "God Module"
TITLE "Seance"
FILE "God Module - Seance.flac" WAVE
  TRACK 01 AUDIO
    TITLE "Ouija"
    PERFORMER "God Module"
    FLAGS DCP
    INDEX 01 00:00:00
  TRACK 02 AUDIO
    TITLE "Devil's Night"
    PERFORMER "God Module"
    FLAGS DCP
    INDEX 01 03:51:20
  TRACK 03 AUDIO
    TITLE "Plastic"
    PERFORMER "God Module"
    FLAGS DCP
    INDEX 01 08:36:02
  TRACK 04 AUDIO
    TITLE "Doppelgдnger"
    PERFORMER "God Module"
    FLAGS DCP
    INDEX 01 12:50:59
  TRACK 05 AUDIO
    TITLE "M.D.K."
    PERFORMER "God Module"
    FLAGS DCP
    INDEX 01 17:04:36
  TRACK 06 AUDIO
    TITLE "Extinct"
    PERFORMER "God Module"
    FLAGS DCP
    INDEX 01 22:06:67
  TRACK 07 AUDIO
    TITLE "Rituals"
    PERFORMER "God Module"
    FLAGS DCP
    INDEX 01 26:16:43
  TRACK 08 AUDIO
    TITLE "Into The Outside"
    PERFORMER "God Module"
    FLAGS DCP
    INDEX 01 30:31:43
  TRACK 09 AUDIO
    TITLE "Video"
    PERFORMER "God Module"
    FLAGS DCP
    INDEX 01 35:17:39
  TRACK 10 AUDIO
    TITLE "Remember"
    PERFORMER "God Module"
    FLAGS DCP
    INDEX 01 39:45:08
  TRACK 11 AUDIO
    TITLE "Fake Fame"
    PERFORMER "God Module"
    FLAGS DCP
    INDEX 01 43:57:55
  TRACK 12 AUDIO
    TITLE "Afraid of the Light"
    PERFORMER "God Module"
    FLAGS DCP
    INDEX 01 49:00:37
Код:
REM GENRE "EBM Electro"
REM DATE 2011
REM DISCID 4E074207
REM COMMENT "ExactAudioCopy v0.99pb5"
PERFORMER "God Module"
TITLE "Rituals EP"
FILE "God Module - Rituals EP.flac" WAVE
  TRACK 01 AUDIO
    TITLE "Rituals (Distorted Memory mix)"
    PERFORMER "God Module"
    FLAGS DCP
    INDEX 01 00:00:00
  TRACK 02 AUDIO
    TITLE "Devils Night (Modulate B Ket mix)"
    PERFORMER "God Module"
    FLAGS DCP
    INDEX 01 04:40:46
  TRACK 03 AUDIO
    TITLE "Rituals (White Ring mix)"
    PERFORMER "God Module"
    FLAGS DCP
    INDEX 01 10:16:08
  TRACK 04 AUDIO
    TITLE "Rituals (God Mod Clubbed To death mix)"
    PERFORMER "God Module"
    FLAGS DCP
    INDEX 01 13:48:31
  TRACK 05 AUDIO
    TITLE " Remember (God Mod Vexed mix)"
    PERFORMER "God Module"
    FLAGS DCP
    INDEX 01 18:14:03
  TRACK 06 AUDIO
    TITLE "Rituals (iVardensphere mix)"
    PERFORMER "God Module"
    FLAGS DCP
    INDEX 01 22:12:20
  TRACK 07 AUDIO
    TITLE "Rituals (Mordacious mix)"
    PERFORMER "God Module"
    FLAGS DCP
    INDEX 01 26:51:26
Код:
[url=https://fastpic.ru/view/31/2011/1113/76b137c07f3f9b1aa0a43cc53194c764.jpg.html][img]http://i31.fastpic.ru/thumb/2011/1113/64/76b137c07f3f9b1aa0a43cc53194c764.jpeg[/img][/url][url=https://fastpic.ru/view/28/2011/1113/aeac6dcda1921d1763b4903ecce229db.jpg.html][img]http://i28.fastpic.ru/thumb/2011/1113/db/aeac6dcda1921d1763b4903ecce229db.jpeg[/img][/url][url=https://fastpic.ru/view/30/2011/1113/65c624effa7665a6ad710ca9e87cc666.jpg.html][img]http://i30.fastpic.ru/thumb/2011/1113/66/65c624effa7665a6ad710ca9e87cc666.jpeg[/img][/url][url=https://fastpic.ru/view/32/2011/1113/ce78a8ab8c425c790ef4a540883a9259.jpg.html][img]http://i32.fastpic.ru/thumb/2011/1113/59/ce78a8ab8c425c790ef4a540883a9259.jpeg[/img][/url]
[url=https://fastpic.ru/view/28/2011/1113/d664b0b981ca6999f46fcd478144ff6b.jpg.html][img]http://i28.fastpic.ru/thumb/2011/1113/6b/d664b0b981ca6999f46fcd478144ff6b.jpeg[/img][/url][url=https://fastpic.ru/view/29/2011/1113/ba53bc4586326c5ebf7647b602269d50.jpg.html][img]http://i29.fastpic.ru/thumb/2011/1113/50/ba53bc4586326c5ebf7647b602269d50.jpeg[/img][/url][url=https://fastpic.ru/view/27/2011/1113/4eacd96b01cb9f3399d2d309025c9923.jpg.html][img]http://i27.fastpic.ru/thumb/2011/1113/23/4eacd96b01cb9f3399d2d309025c9923.jpeg[/img][/url][url=https://fastpic.ru/view/28/2011/1113/bec180d8273a96c6651d5e1ea3e317ec.jpg.html][img]http://i28.fastpic.ru/thumb/2011/1113/ec/bec180d8273a96c6651d5e1ea3e317ec.jpeg[/img][/url]
Выражаю благодарность kergarn`у за HQ scans!
Правила, инструкции, FAQ!!!
Торрент  Добавлен [26 июн 2020, 19:55] Скачать торрент Магнет ссылка
Скачать торрент
[ Размер 15.07 КБ / Просмотров 11 ]

Статус
Проверен 
 
Размер  663.48 МБ
Приватный: Нет (DHT включён)
.torrent скачан  0
 


     Отправить личное сообщение
   
Страница 1 из 1
Показать сообщения за:  Поле сортировки  
Начать новую тему Ответить на тему


Сейчас этот форум просматривают: нет зарегистрированных пользователей и гости: 0


Вы не можете начинать темы
Вы не можете отвечать на сообщения
Вы не можете редактировать свои сообщения
Вы не можете удалять свои сообщения
Вы не можете добавлять вложения

Перейти:  
cron