Начать новую тему Ответить на тему
Статистика раздачи
Размер: 401.61 МБ | Добавлен: 26 июн 2020, 21:07 | Скачали: 0
Сидеров: 0  [0 байт/сек]    Личеров: 0  [0 байт/сек]
Пред. тема | След. тема 

Автор
Сообщение

СообщениеДобавлено: 26 июн 2020, 21:07 

Ответить с цитатой 

Y Front / Mellow Cosmos
#777Жанр: electro industrial
Страна-производитель диска: France
Год издания: 2001
Издатель (лейбл): IntoXygene
Номер по каталогу: INTOX012CD
Аудиокодек: FLAC (*.flac)
Тип рипа: image+.cue
Битрейт аудио: lossless
Продолжительность: 56:24.67
Источник (релизер): Физический носитель
Наличие сканов в содержимом раздачи: да
Треклист:
01. Space Junk (In The 21st Century Coma Ship) [4:34]
02. Eccentric Moondancer [3:50]
03. Mellow Cosmos [6:03]
04. Daft Boyz [4:50]
05. Anti Mental Love [5:25]
06. Never Lead Me [4:10]
07. In The Name Of Beauty [6:02]
08. Scandalized [4:07]
09. Home Pornographic Machine [5:46]
10. The Right Side Of Heaven [4:38]
11. Neverending Flight [6:59]
Код:
Exact Audio Copy V1.0 beta 3 from 29. August 2011
Отчёт EAC об извлечении, выполненном 1. мая 2012, 15:47
Y Front / Mellow Cosmos
Дисковод: PIONEER DVD-RW  DVR-XD10   Adapter: 3  ID: 0
Режим чтения                 : Достоверность
Использование точного потока : Да
Отключение кэша аудио        : Да
Использование указателей C2  : Нет
Коррекция смещения при чтении                     : 96
Способность читать области Lead-in и Lead-out     : Нет
Заполнение пропущенных сэмплов тишиной            : Да
Удаление блоков с тишиной в начале и конце        : Нет
При вычислениях CRC использовались нулевые сэмплы : Да
Интерфейс                                         : Встроенный Win32-интерфейс для Win NT/2000
Выходной формат          : Пользовательский кодировщик
Выбранный битрейт        : 1024 kBit/s
Качество                 : Высокий
Добавление ID3-тега      : Нет
Утилита сжатия           : C:\Program Files\Exact Audio Copy\FLAC\FLAC.EXE
Дополнительные параметры : -6 -V -T "Date=%year%" -T "Genre=%genre%" %source%
TOC извлечённого CD
     Трек |   Старт  | Длительность | Начальный сектор | Конечный сектор
    ---------------------------------------------------------------------
       1  |  0:00.00 |    4:33.45   |           0      |      20519
       2  |  4:33.45 |    3:49.50   |       20520      |      37744
       3  |  8:23.20 |    6:03.37   |       37745      |      65006
       4  | 14:26.57 |    4:50.18   |       65007      |      86774
       5  | 19:17.00 |    5:25.15   |       86775      |     111164
       6  | 24:42.15 |    4:09.52   |      111165      |     129891
       7  | 28:51.67 |    6:02.30   |      129892      |     157071
       8  | 34:54.22 |    4:07.30   |      157072      |     175626
       9  | 39:01.52 |    5:46.23   |      175627      |     201599
      10  | 44:48.00 |    4:37.42   |      201600      |     222416
      11  | 49:25.42 |    6:59.25   |      222417      |     253866
Характеристики диапазона извлечения и сообщения об ошибках
Выбранный диапазон
     Имя файла C:\Documents and Settings\Наташка\Рабочий стол\Y Front - Mellow Cosmos.wav
     Пиковый уровень 100.0 %
     Скорость извлечения 3.9 X
     Качество диапазона 100.0 %
     CRC теста 21416FC5
     CRC копии 21416FC5
     Копирование... OK
Ошибок не произошло
AccurateRip: сводка
Трек  1  : извлечено точно (доверие 2)  [F35DA280]  (AR v1)
Трек  2  : извлечено точно (доверие 2)  [644BCABA]  (AR v1)
Трек  3  : извлечено точно (доверие 2)  [8C8BF6C8]  (AR v1)
Трек  4  : извлечено точно (доверие 2)  [BEA8D12B]  (AR v1)
Трек  5  : извлечено точно (доверие 2)  [CF76767C]  (AR v1)
Трек  6  : извлечено точно (доверие 2)  [D4D470E0]  (AR v1)
Трек  7  : извлечено точно (доверие 2)  [AC228932]  (AR v1)
Трек  8  : извлечено точно (доверие 2)  [66D9FCE7]  (AR v1)
Трек  9  : извлечено точно (доверие 2)  [901CD288]  (AR v1)
Трек 10  : извлечено точно (доверие 2)  [0B612005]  (AR v1)
Трек 11  : извлечено точно (доверие 2)  [5DB71C67]  (AR v1)
Все треки извлечены точно
Конец отчёта
==== Контрольная сумма отчёта 5FB0B209BDDD4D039D6B3A0D8085C89F29B1AAAF4EA6CDD552A115434CABF77F ====
Правила, инструкции, FAQ!!!
Торрент  Добавлен [26 июн 2020, 21:07] Скачать торрент Магнет ссылка
Скачать торрент
[ Размер 16.68 КБ / Просмотров 11 ]

Статус
Проверен 
 
Размер  401.61 МБ
Приватный: Нет (DHT включён)
.torrent скачан  0
 


     Отправить личное сообщение
   
Страница 1 из 1
Показать сообщения за:  Поле сортировки  
Начать новую тему Ответить на тему


Сейчас этот форум просматривают: нет зарегистрированных пользователей и гости: 0


Вы не можете начинать темы
Вы не можете отвечать на сообщения
Вы не можете редактировать свои сообщения
Вы не можете удалять свои сообщения
Вы не можете добавлять вложения

Перейти:  
cron