Начать новую тему Ответить на тему
Статистика раздачи
Размер: 148.31 МБ | Добавлен: 26 июн 2020, 19:42 | Скачали: 0
Сидеров: 1  [0 байт/сек]    Личеров: 0  [0 байт/сек]
Пред. тема | След. тема 

Автор
Сообщение

СообщениеДобавлено: 26 июн 2020, 19:42 

Ответить с цитатой 

Front Line Assembly - Shifting Through The Lens (Single)
Жанр: Electro-Industrial
Год выпуска диска: 2010
Производитель диска: Canada
Аудио кодек: FLAC
Тип рипа: tracks+.cue
Продолжительность: 20:19
Трэклист:
1 Shifting Through The Lens
2 Angriff
3 Endless Void
Exact Audio Copy V0.99 prebeta 5 from 4. May 2009
EAC extraction logfile from 23. June 2010, 11:10
Front Line Assembly / Shifting Through the Lens
Used drive : TSSTcorpCDDVDW SH-S203B Adapter: 0 ID: 2
Read mode : Secure
Utilize accurate stream : Yes
Defeat audio cache : Yes
Make use of C2 pointers : No
Read offset correction : 6
Overread into Lead-In and Lead-Out : No
Fill up missing offset samples with silence : Yes
Delete leading and trailing silent blocks : No
Null samples used in CRC calculations : Yes
Used interface : Native Win32 interface for Win NT & 2000
Gap handling : Appended to previous track
Used output format : User Defined Encoder
Selected bitrate : 320 kBit/s
Quality : High
Add ID3 tag : No
Command line compressor : C:\Program Files (x86)\Exact Audio Copy\Flac\flac.exe
Additional command line options : -V -8 -T "artist=%a" -T "title=%t" -T "album=%g" -T "date=%y" -T "tracknumber=%n" -T "genre=%m" %s
TOC of the extracted CD
Track | Start | Length | Start sector | End sector
---------------------------------------------------------
1 | 0:00.00 | 6:08.00 | 0 | 27599
2 | 6:08.00 | 6:43.56 | 27600 | 57880
3 | 12:51.56 | 9:31.19 | 57881 | 100724
Track 1
Filename D:\EAC\FLAC\Front Line Assembly - 2010 - Shifting Through the Lens\01 - Shifting Through the Lens.wav
Pre-gap length 0:00:02.00
Peak level 98.8 %
Track quality 100.0 %
Test CRC D38BC975
Copy CRC D38BC975
Accurately ripped (confidence 1) [EFDE7F1C]
Copy OK
Track 2
Filename D:\EAC\FLAC\Front Line Assembly - 2010 - Shifting Through the Lens\02 - Angriff.wav
Pre-gap length 0:00:01.57
Peak level 98.8 %
Track quality 100.0 %
Test CRC 5841D9AE
Copy CRC 5841D9AE
Accurately ripped (confidence 1) [67825733]
Copy OK
Track 3
Filename D:\EAC\FLAC\Front Line Assembly - 2010 - Shifting Through the Lens\03 - Endless Void.wav
Pre-gap length 0:00:01.82
Peak level 98.8 %
Track quality 100.0 %
Test CRC 89631943
Copy CRC 89631943
Accurately ripped (confidence 1) [39AA10DC]
Copy OK
All tracks accurately ripped
No errors occurred
End of status report
REM GENRE Industrial
REM DATE 2010
REM DISCID 1D053F03
REM COMMENT "ExactAudioCopy v0.99pb5"
FILE "01 - Shifting Through the Lens.flac" WAVE
TRACK 01 AUDIO
INDEX 01 00:00:00
FILE "02 - Angriff.flac" WAVE
TRACK 02 AUDIO
INDEX 00 06:06:32
INDEX 01 00:00:00
FILE "03 - Endless Void.flac" WAVE
TRACK 03 AUDIO
INDEX 00 06:41:69
INDEX 01 00:00:00
Релиз взят с What.cd. Спасибо релизерам!
Правила, инструкции, FAQ!!!
Торрент  Добавлен [26 июн 2020, 19:42] Скачать торрент Магнет ссылка
Скачать торрент
[ Размер 12.35 КБ / Просмотров 9 ]

Статус
Проверен 
 
Размер  148.31 МБ
Приватный: Нет (DHT включён)
.torrent скачан  0
 


     Отправить личное сообщение
   
Страница 1 из 1
Показать сообщения за:  Поле сортировки  
Начать новую тему Ответить на тему


Сейчас этот форум просматривают: нет зарегистрированных пользователей и гости: 0


Вы не можете начинать темы
Вы не можете отвечать на сообщения
Вы не можете редактировать свои сообщения
Вы не можете удалять свои сообщения
Вы не можете добавлять вложения

Перейти:  
cron