Начать новую тему Ответить на тему
Статистика раздачи
Размер: 453.8 МБ | Добавлен: 26 июн 2020, 16:48 | Скачали: 0
Сидеров: 0  [0 байт/сек]    Личеров: 0  [0 байт/сек]
Пред. тема | След. тема 

Автор
Сообщение

СообщениеДобавлено: 26 июн 2020, 16:48 

Ответить с цитатой 

Filament 38 / Unstable
Жанр: Electro, Industrial
Страна-производитель диска: US
Год издания диска: 2005
Издатель (лейбл): Negative Gain Productions
Номер по каталогу: NGP80302
Страна: US
Аудио кодек: FLAC (*.flac)
Тип рипа: tracks+.cue
Битрейт аудио: lossless
Продолжительность: 59:19
Источник (релизер): CD-R
Наличие сканов в содержимом раздачи: нет
Треклист:
1 Contempt 5:28
2 Dissect (Infekt) 5:04
3 Interface 5:22
4 Suffocate 4:14
5 Uplink (TerraMachina) 4:26
6 Stasis 2:00
7 The Cold Process 6:03
8 Relapse 4:51
9 Ideology 3:39
10 Blood 4:10
11 Dissect (Imperative Reaction Remix) 5:08
12 Uplink (Terrorfakt Remix) 4:45
13 Suffocate (Cruciform Injection Plastic Remix) 4:08
Код:
Exact Audio Copy V0.99 prebeta 5 from 4. May 2009
EAC extraction logfile from 23. November 2010, 23:44
Filament 38 / Unstable
Used drive  : PIONEER DVD-RW  DVR-216D   Adapter: 0  ID: 0
Read mode               : Secure
Utilize accurate stream : Yes
Defeat audio cache      : Yes
Make use of C2 pointers : No
Read offset correction                      : 96
Overread into Lead-In and Lead-Out          : No
Fill up missing offset samples with silence : Yes
Delete leading and trailing silent blocks   : No
Null samples used in CRC calculations       : Yes
Used interface                              : Native Win32 interface for Win NT & 2000
Gap handling                                : Appended to previous track
Used output format              : User Defined Encoder
Selected bitrate                : 1024 kBit/s
Quality                         : High
Add ID3 tag                     : No
Command line compressor         : C:\Program Files (x86)\Exact Audio Copy\Flac\flac.exe
Additional command line options : -8 -V -T "ARTIST=%a" -T "TITLE=%t" -T "ALBUM=%g" -T "DATE=%y" -T "TRACKNUMBER=%n" -T "GENRE=%m" -T "COMMENT=EAC FLAC -8" %s
TOC of the extracted CD
     Track |   Start  |  Length  | Start sector | End sector
    ---------------------------------------------------------
        1  |  0:00.00 |  5:27.47 |         0    |    24571
        2  |  5:27.47 |  5:03.47 |     24572    |    47343
        3  | 10:31.19 |  5:23.40 |     47344    |    71608
        4  | 15:54.59 |  4:13.59 |     71609    |    90642
        5  | 20:08.43 |  4:26.10 |     90643    |   110602
        6  | 24:34.53 |  1:57.51 |    110603    |   119428
        7  | 26:32.29 |  6:05.08 |    119429    |   146811
        8  | 32:37.37 |  4:51.60 |    146812    |   168696
        9  | 37:29.22 |  3:38.44 |    168697    |   185090
       10  | 41:07.66 |  4:09.52 |    185091    |   203817
       11  | 45:17.43 |  5:07.46 |    203818    |   226888
       12  | 50:25.14 |  4:45.69 |    226889    |   248332
       13  | 55:11.08 |  4:08.05 |    248333    |   266937
Track  1
     Filename I:\Audio\TORRENTS\Filament 38\tracks\ 01. Filament 38 – Contempt.wav
     Pre-gap length  0:00:02.00
     Peak level 98.9 %
     Track quality 100.0 %
     Test CRC 47AE34BD
     Copy CRC 47AE34BD
     Cannot be verified as accurate (confidence 2)  [6C6D7526], AccurateRip returned [97B7B26D]
     Copy OK
Track  2
     Filename I:\Audio\TORRENTS\Filament 38\tracks\ 02. Filament 38 – Dissect (Infekt).wav
     Peak level 98.8 %
     Track quality 100.0 %
     Test CRC E5E2EC59
     Copy CRC E5E2EC59
     Cannot be verified as accurate (confidence 2)  [E0D5672F], AccurateRip returned [1B8D1B9D]
     Copy OK
Track  3
     Filename I:\Audio\TORRENTS\Filament 38\tracks\ 03. Filament 38 – Interface.wav
     Peak level 98.8 %
     Track quality 100.0 %
     Test CRC 49A57458
     Copy CRC 49A57458
     Cannot be verified as accurate (confidence 2)  [033A6C84], AccurateRip returned [E62514BE]
     Copy OK
Track  4
     Filename I:\Audio\TORRENTS\Filament 38\tracks\ 04. Filament 38 – Suffocate.wav
     Peak level 98.9 %
     Track quality 100.0 %
     Test CRC 8E76ADE0
     Copy CRC 8E76ADE0
     Cannot be verified as accurate (confidence 2)  [D2B47781], AccurateRip returned [79ACEE11]
     Copy OK
Track  5
     Filename I:\Audio\TORRENTS\Filament 38\tracks\ 05. Filament 38 – Uplink.wav
     Peak level 98.8 %
     Track quality 100.0 %
     Test CRC DCA2CA87
     Copy CRC DCA2CA87
     Cannot be verified as accurate (confidence 2)  [719DA2DF], AccurateRip returned [4EF933BB]
     Copy OK
Track  6
     Filename I:\Audio\TORRENTS\Filament 38\tracks\ 06. Filament 38 – Stasis.wav
     Peak level 98.8 %
     Track quality 100.0 %
     Test CRC F3378423
     Copy CRC F3378423
     Cannot be verified as accurate (confidence 2)  [E51C4A3B], AccurateRip returned [53689187]
     Copy OK
Track  7
     Filename I:\Audio\TORRENTS\Filament 38\tracks\ 07. Filament 38 – The Cold Process.wav
     Peak level 98.9 %
     Track quality 100.0 %
     Test CRC C68E2E44
     Copy CRC C68E2E44
     Cannot be verified as accurate (confidence 2)  [8DEDA66F], AccurateRip returned [F0043D89]
     Copy OK
Track  8
     Filename I:\Audio\TORRENTS\Filament 38\tracks\ 08. Filament 38 – Relapse.wav
     Peak level 98.9 %
     Track quality 100.0 %
     Test CRC 1B2D2432
     Copy CRC 1B2D2432
     Cannot be verified as accurate (confidence 2)  [D089C456], AccurateRip returned [D9A56E9C]
     Copy OK
Track  9
     Filename I:\Audio\TORRENTS\Filament 38\tracks\ 09. Filament 38 – Ideology.wav
     Peak level 98.8 %
     Track quality 100.0 %
     Test CRC 81EB8D36
     Copy CRC 81EB8D36
     Cannot be verified as accurate (confidence 2)  [C49EF96E], AccurateRip returned [A128B980]
     Copy OK
Track 10
     Filename I:\Audio\TORRENTS\Filament 38\tracks\ 10. Filament 38 – Blood.wav
     Peak level 98.9 %
     Track quality 99.9 %
     Test CRC 14D2C6CA
     Copy CRC 14D2C6CA
     Cannot be verified as accurate (confidence 2)  [023EC820], AccurateRip returned [35196100]
     Copy OK
Track 11
     Filename I:\Audio\TORRENTS\Filament 38\tracks\ 11. Filament 38 – Dissect (Imperative Reaction Remix).wav
     Peak level 98.9 %
     Track quality 100.0 %
     Test CRC F5585654
     Copy CRC F5585654
     Cannot be verified as accurate (confidence 2)  [9D797EF6], AccurateRip returned [6F2BF118]
     Copy OK
Track 12
     Filename I:\Audio\TORRENTS\Filament 38\tracks\ 12. Filament 38 – Uplink (Terrorfakt Remix).wav
     Peak level 98.8 %
     Track quality 99.9 %
     Test CRC 3A87F694
     Copy CRC 3A87F694
     Cannot be verified as accurate (confidence 2)  [5CD88BAA], AccurateRip returned [430319AE]
     Copy OK
Track 13
     Filename I:\Audio\TORRENTS\Filament 38\tracks\ 13. Filament 38 – Suffocate (Cruciform Injection Plastic Remix).wav
     Peak level 98.9 %
     Track quality 99.9 %
     Test CRC 648B3D51
     Copy CRC 648B3D51
     Cannot be verified as accurate (confidence 2)  [63B9AB36], AccurateRip returned [04113860]
     Copy OK
No tracks could be verified as accurate
You may have a different pressing from the one(s) in the database
No errors occurred
End of status report
Код:
REM GENRE Industrial
REM DATE 2005
REM DISCID B90DE70D
REM COMMENT "ExactAudioCopy v0.99pb5"
PERFORMER "Filament 38"
TITLE "Unstable"
FILE " 01. Filament 38 – Contempt.wav" WAVE
  TRACK 01 AUDIO
    TITLE "Contempt"
    PERFORMER "Filament 38"
    INDEX 01 00:00:00
FILE " 02. Filament 38 – Dissect (Infekt).wav" WAVE
  TRACK 02 AUDIO
    TITLE "Dissect (Infekt)"
    PERFORMER "Filament 38"
    INDEX 01 00:00:00
FILE " 03. Filament 38 – Interface.wav" WAVE
  TRACK 03 AUDIO
    TITLE "Interface"
    PERFORMER "Filament 38"
    INDEX 01 00:00:00
FILE " 04. Filament 38 – Suffocate.wav" WAVE
  TRACK 04 AUDIO
    TITLE "Suffocate"
    PERFORMER "Filament 38"
    INDEX 01 00:00:00
FILE " 05. Filament 38 – Uplink.wav" WAVE
  TRACK 05 AUDIO
    TITLE "Uplink"
    PERFORMER "Filament 38"
    INDEX 01 00:00:00
FILE " 06. Filament 38 – Stasis.wav" WAVE
  TRACK 06 AUDIO
    TITLE "Stasis"
    PERFORMER "Filament 38"
    INDEX 01 00:00:00
FILE " 07. Filament 38 – The Cold Process.wav" WAVE
  TRACK 07 AUDIO
    TITLE "The Cold Process"
    PERFORMER "Filament 38"
    INDEX 01 00:00:00
FILE " 08. Filament 38 – Relapse.wav" WAVE
  TRACK 08 AUDIO
    TITLE "Relapse"
    PERFORMER "Filament 38"
    INDEX 01 00:00:00
FILE " 09. Filament 38 – Ideology.wav" WAVE
  TRACK 09 AUDIO
    TITLE "Ideology"
    PERFORMER "Filament 38"
    INDEX 01 00:00:00
FILE " 10. Filament 38 – Blood.wav" WAVE
  TRACK 10 AUDIO
    TITLE "Blood"
    PERFORMER "Filament 38"
    INDEX 01 00:00:00
FILE " 11. Filament 38 – Dissect (Imperative Reaction Remix).wav" WAVE
  TRACK 11 AUDIO
    TITLE "Dissect (Imperative Reaction Remix)"
    PERFORMER "Filament 38"
    INDEX 01 00:00:00
FILE " 12. Filament 38 – Uplink (Terrorfakt Remix).wav" WAVE
  TRACK 12 AUDIO
    TITLE "Uplink (Terrorfakt Remix)"
    PERFORMER "Filament 38"
    INDEX 01 00:00:00
FILE " 13. Filament 38 – Suffocate (Cruciform Injection Plastic Remix).wav" WAVE
  TRACK 13 AUDIO
    TITLE "Suffocate (Cruciform Injection Plastic Remix)"
    PERFORMER "Filament 38"
    INDEX 01 00:00:00
Код:
Started at: вторник, 23. 11. 2010. - 23:51.18
13 files found
01 -===- track 1 in drive PIONEER DVD-RW  DVR-216D
  Track ripped successfully
  Conclusion: this track is CDDA with probability 99%
  Tempfile successfully deleted.
02 -===- track 2 in drive PIONEER DVD-RW  DVR-216D
  Track ripped successfully
  Conclusion: this track is CDDA with probability 99%
  Tempfile successfully deleted.
03 -===- track 3 in drive PIONEER DVD-RW  DVR-216D
  Track ripped successfully
  Conclusion: this track is CDDA with probability 100%
  Tempfile successfully deleted.
04 -===- track 4 in drive PIONEER DVD-RW  DVR-216D
  Track ripped successfully
  Conclusion: this track is CDDA with probability 100%
  Tempfile successfully deleted.
05 -===- track 5 in drive PIONEER DVD-RW  DVR-216D
  Track ripped successfully
  Conclusion: this track is CDDA with probability 99%
  Tempfile successfully deleted.
06 -===- track 6 in drive PIONEER DVD-RW  DVR-216D
  Track ripped successfully
  Conclusion: this track is CDDA with probability 100%
  Tempfile successfully deleted.
07 -===- track 7 in drive PIONEER DVD-RW  DVR-216D
  Track ripped successfully
  Conclusion: this track is CDDA with probability 100%
  Tempfile successfully deleted.
08 -===- track 8 in drive PIONEER DVD-RW  DVR-216D
  Track ripped successfully
  Conclusion: this track is CDDA with probability 99%
  Tempfile successfully deleted.
09 -===- track 9 in drive PIONEER DVD-RW  DVR-216D
  Track ripped successfully
  Conclusion: this track is CDDA with probability 100%
  Tempfile successfully deleted.
10 -===- track 10 in drive PIONEER DVD-RW  DVR-216D
  Track ripped successfully
  Conclusion: this track is CDDA with probability 100%
  Tempfile successfully deleted.
11 -===- track 11 in drive PIONEER DVD-RW  DVR-216D
  Track ripped successfully
  Conclusion: this track is CDDA with probability 100%
  Tempfile successfully deleted.
12 -===- track 12 in drive PIONEER DVD-RW  DVR-216D
  Track ripped successfully
  Conclusion: this track is CDDA with probability 100%
  Tempfile successfully deleted.
13 -===- track 13 in drive PIONEER DVD-RW  DVR-216D
  Track ripped successfully
  Conclusion: this track is CDDA with probability 100%
  Tempfile successfully deleted.
Finished at: среда, 24. 11. 2010. - 0:00.04 (operation time: 0:08.46)


Доп. информация: http://www.discogs.com/Filament-38-Unstable/release/760512
http://www.myspace.com/filament38
http://www.filament38.com/
Ash, Sigma
Правила, инструкции, FAQ!!!
Торрент  Добавлен [26 июн 2020, 16:48] Скачать торрент Магнет ссылка
Скачать торрент
[ Размер 19.9 КБ / Просмотров 4 ]

Статус
Проверен 
 
Размер  453.8 МБ
Приватный: Нет (DHT включён)
.torrent скачан  0
 


     Отправить личное сообщение
   
Страница 1 из 1
Показать сообщения за:  Поле сортировки  
Начать новую тему Ответить на тему


Сейчас этот форум просматривают: нет зарегистрированных пользователей и гости: 0


Вы не можете начинать темы
Вы не можете отвечать на сообщения
Вы не можете редактировать свои сообщения
Вы не можете удалять свои сообщения
Вы не можете добавлять вложения

Перейти:  
cron