Начать новую тему Ответить на тему
Статистика раздачи
Размер: 406.74 МБ | Добавлен: 26 июн 2020, 20:17 | Скачали: 0
Сидеров: 1  [0 байт/сек]    Личеров: 0  [0 байт/сек]
Пред. тема | След. тема 

Автор
Сообщение

СообщениеДобавлено: 26 июн 2020, 20:17 

Ответить с цитатой 

Fektion Fekler - Kling Klang Bedlam
Жанр: Electro, Industrial
Год выпуска диска: 1998
Производитель диска: US
Аудио кодек: FLAC
Тип рипа: tracks+.cue
Битрейт аудио: lossless
Трэклист:
1 Dehabilitated (Off The Wagon Mix) (6:10)
2 The Dowser That Couldn't Dowse (3:58)
3 Just Another Try (4:29)
4 Reverb Deficiency (4:24)
5 Tingle (2:48)
6 Limbic (Blue Torpedo Mix) (5:10)
7 Anawanala (4:05)
8 Unconditional Surrender (3:35)
9 Maker, Make Believe (3:21)
10 Dipsomania (4:52)
11 Wiser For The Winter (6:09)
12 Overway (Wibble Wobble Mix) (5:30)
13 Setting Sun (3:14)
Exact Audio Copy V0.99 prebeta 4 from 23. January 2008
EAC extraction logfile from 11. October 2008, 10:43
Fektion Fekler / Kling Klang Bedlam
Used drive : TSSTcorpDVD+-RW TS-H653B Adapter: 1 ID: 0
Read mode : Secure
Utilize accurate stream : Yes
Defeat audio cache : Yes
Make use of C2 pointers : No
Read offset correction : 6
Overread into Lead-In and Lead-Out : No
Fill up missing offset samples with silence : Yes
Delete leading and trailing silent blocks : No
Null samples used in CRC calculations : Yes
Used interface : Installed external ASPI interface
Gap handling : Appended to previous track
Used output format : User Defined Encoder
Selected bitrate : 192 kBit/s
Quality : High
Add ID3 tag : No
Command line compressor : C:\Program Files\Exact Audio Copy\Flac\flac.exe
Additional command line options : -V -8 -T "artist=%a" -T "title=%t" -T "album=%g" -T "date=%y" -T "tracknumber=%n" -T "genre=%m" %s
TOC of the extracted CD
Track | Start | Length | Start sector | End sector
---------------------------------------------------------
1 | 0:00.00 | 6:10.38 | 0 | 27787
2 | 6:10.38 | 3:58.19 | 27788 | 45656
3 | 10:08.57 | 4:29.73 | 45657 | 65904
4 | 14:38.55 | 4:24.49 | 65905 | 85753
5 | 19:03.29 | 2:48.50 | 85754 | 98403
6 | 21:52.04 | 5:10.44 | 98404 | 121697
7 | 27:02.48 | 4:05.33 | 121698 | 140105
8 | 31:08.06 | 3:35.07 | 140106 | 156237
9 | 34:43.13 | 3:21.65 | 156238 | 171377
10 | 38:05.03 | 4:52.23 | 171378 | 193300
11 | 42:57.26 | 6:09.01 | 193301 | 220976
12 | 49:06.27 | 5:30.57 | 220977 | 245783
13 | 54:37.09 | 3:14.50 | 245784 | 260383
14 | 57:51.59 | 3:13.00 | 260384 | 274858
15 | 61:04.59 | 0:09.65 | 274859 | 275598
Track 1
Filename C:\A\Fektion Fekler - Kling Klang Bedlam [flac]\01 - Dehabilitated (Off the Wagon Mix).wav
Pre-gap length 0:00:02.00
Peak level 96.6 %
Track quality 100.0 %
Test CRC 9F341F15
Copy CRC 9F341F15
Accurately ripped (confidence 7) [49E3BDFD]
Copy OK
Track 2
Filename C:\A\Fektion Fekler - Kling Klang Bedlam [flac]\02 - The Dowser That Couldn't Dowse.wav
Peak level 96.6 %
Track quality 100.0 %
Test CRC E1E876B5
Copy CRC E1E876B5
Accurately ripped (confidence 7) [15A92215]
Copy OK
Track 3
Filename C:\A\Fektion Fekler - Kling Klang Bedlam [flac]\03 - Just Another Try.wav
Peak level 96.6 %
Track quality 99.9 %
Test CRC FAE7A567
Copy CRC FAE7A567
Accurately ripped (confidence 7) [5AFFD44F]
Copy OK
Track 4
Filename C:\A\Fektion Fekler - Kling Klang Bedlam [flac]\04 - Reverb Deficiency.wav
Peak level 96.6 %
Track quality 99.9 %
Test CRC FA277071
Copy CRC FA277071
Accurately ripped (confidence 7) [B117C133]
Copy OK
Track 5
Filename C:\A\Fektion Fekler - Kling Klang Bedlam [flac]\05 - Tingle.wav
Peak level 96.6 %
Track quality 99.9 %
Test CRC B7BA5597
Copy CRC B7BA5597
Accurately ripped (confidence 7) [601A431F]
Copy OK
Track 6
Filename C:\A\Fektion Fekler - Kling Klang Bedlam [flac]\06 - Limbic (Blue Torpedo Mix).wav
Peak level 96.6 %
Track quality 100.0 %
Test CRC A2F47E05
Copy CRC A2F47E05
Accurately ripped (confidence 7) [03494A55]
Copy OK
Track 7
Filename C:\A\Fektion Fekler - Kling Klang Bedlam [flac]\07 - Anawanala.wav
Peak level 96.6 %
Track quality 100.0 %
Test CRC 7E3CA9D3
Copy CRC 7E3CA9D3
Accurately ripped (confidence 7) [C6CF7BBF]
Copy OK
Track 8
Filename C:\A\Fektion Fekler - Kling Klang Bedlam [flac]\08 - Unconditional Surrender.wav
Peak level 96.6 %
Track quality 100.0 %
Test CRC BE017191
Copy CRC BE017191
Accurately ripped (confidence 7) [D25D20B3]
Copy OK
Track 9
Filename C:\A\Fektion Fekler - Kling Klang Bedlam [flac]\09 - Maker, Make Believe.wav
Peak level 96.6 %
Track quality 100.0 %
Test CRC CB1D3464
Copy CRC CB1D3464
Accurately ripped (confidence 7) [19212C9D]
Copy OK
Track 10
Filename C:\A\Fektion Fekler - Kling Klang Bedlam [flac]\10 - Dipsomania.wav
Peak level 96.6 %
Track quality 100.0 %
Test CRC 4671A782
Copy CRC 4671A782
Accurately ripped (confidence 6) [4A7816FC]
Copy OK
Track 11
Filename C:\A\Fektion Fekler - Kling Klang Bedlam [flac]\11 - Wiser for the Winter.wav
Peak level 96.6 %
Track quality 100.0 %
Test CRC 8D3FD280
Copy CRC 8D3FD280
Accurately ripped (confidence 6) [DA98088A]
Copy OK
Track 12
Filename C:\A\Fektion Fekler - Kling Klang Bedlam [flac]\12 - Overway (Wibble Wobble Mix).wav
Peak level 96.6 %
Track quality 100.0 %
Test CRC 32B06E92
Copy CRC 32B06E92
Accurately ripped (confidence 6) [2C8CB2BF]
Copy OK
Track 13
Filename C:\A\Fektion Fekler - Kling Klang Bedlam [flac]\13 - Setting Sun.wav
Peak level 96.6 %
Track quality 100.0 %
Test CRC C3F91258
Copy CRC C3F91258
Accurately ripped (confidence 7) [1824F320]
Copy OK
Track 14
Filename C:\A\Fektion Fekler - Kling Klang Bedlam [flac]\14 - (Hidden Track 1).wav
Peak level 96.6 %
Track quality 100.0 %
Test CRC DEA5DE43
Copy CRC DEA5DE43
Accurately ripped (confidence 7) [D8B176A6]
Copy OK
Track 15
Filename C:\A\Fektion Fekler - Kling Klang Bedlam [flac]\15 - (Hidden Track 2).wav
Pre-gap length 0:03:08.00
Peak level 0.0 %
Track quality 100.0 %
Test CRC 289CAD66
Copy CRC 289CAD66
Accurately ripped (confidence 7) [0737827B]
Copy OK
All tracks accurately ripped
No errors occurred
End of status report
Правила, инструкции, FAQ!!!
Торрент  Добавлен [26 июн 2020, 20:17] Скачать торрент Магнет ссылка
Скачать торрент
[ Размер 17.35 КБ / Просмотров 8 ]

Статус
Проверен 
 
Размер  406.74 МБ
Приватный: Нет (DHT включён)
.torrent скачан  0
 


     Отправить личное сообщение
   
Страница 1 из 1
Показать сообщения за:  Поле сортировки  
Начать новую тему Ответить на тему


Сейчас этот форум просматривают: нет зарегистрированных пользователей и гости: 0


Вы не можете начинать темы
Вы не можете отвечать на сообщения
Вы не можете редактировать свои сообщения
Вы не можете удалять свои сообщения
Вы не можете добавлять вложения

Перейти:  
cron