Начать новую тему Ответить на тему
Статистика раздачи
Размер: 578.79 МБ | Добавлен: 26 июн 2020, 20:09 | Скачали: 0
Сидеров: 0  [0 байт/сек]    Личеров: 0  [0 байт/сек]
Пред. тема | След. тема 

Автор
Сообщение

СообщениеДобавлено: 26 июн 2020, 20:09 

Ответить с цитатой 

MC1R / Teutonical Visions
Жанр: Electro-Industrial, Experimental, IDM
Страна-производитель диска: Germany
Год издания диска: 2011
Издатель (лейбл): Not On Label
Номер по каталогу: None
Страна: Germany
Аудиокодек: FLAC (*.flac)
Тип рипа: image+.cue
Битрейт аудио: lossless
Продолжительность: 1:19:03.01
Источник (релизер): CD из личной коллекции.
Наличие сканов в содержимом раздачи: да
Треклист:
01. Sender Field 5:14
02. For You 2:50
03. Teutonical Visions 3:26
04. Awakening 3:47
05. Feminacy 5:00
06. Fever Dreams Obsession (feat. Object) 4:10
07. Beloved Friend (Freddy) 4:28
08. They Are Here. 2:58
09. Atmospheric Tides 4:46
10. Undergo (feat. LPF 12) 4:26
11. Sensibility 3:54
12. Deployment. 4:53
13. Man Proposes, God Disposes 3:16
14. Pattern Recognition 4:36
15. Pharmakon 4:07
16. Foreboding 4:07
17. Dark Secrets (feat. Pyrroline) 4:05
18. Insomaniac (Mental Disorder Remix By MC1R) 4:22
19. Inhibition Level (Compunction Remix By MC1R) 4:37
Discogs
Код:
Exact Audio Copy V1.0 beta 3 from 29. August 2011
Отчёт EAC об извлечении, выполненном 4. января 2012, 8:54
MC1R / Teutonical Visions
Дисковод: TSSTcorpCDDVDW TS-L632H   Adapter: 0  ID: 0
Режим чтения                 : Достоверность
Использование точного потока : Да
Отключение кэша аудио        : Да
Использование указателей C2  : Нет
Коррекция смещения при чтении                     : 6
Способность читать области Lead-in и Lead-out     : Нет
Заполнение пропущенных сэмплов тишиной            : Да
Удаление блоков с тишиной в начале и конце        : Нет
При вычислениях CRC использовались нулевые сэмплы : Да
Интерфейс                                         : Встроенный Win32-интерфейс для Win NT/2000
Выходной формат          : Пользовательский кодировщик
Выбранный битрейт        : 1024 kBit/s
Качество                 : Высокий
Добавление ID3-тега      : Нет
Утилита сжатия           : C:\Program Files\Exact Audio Copy\FLAC\FLAC.EXE
Дополнительные параметры : -6 -V -T "ARTIST=%artist%" -T "TITLE=%title%" -T "ALBUM=%albumtitle%" -T "DATE=%year%" -T "TRACKNUMBER=%tracknr%" -T "GENRE=%genre%" -T "COMMENT=%comment%" -T "BAND=%albuminterpret%" -T "ALBUMARTIST=%albuminterpret%" -T "COMPOSER=%composer%" %haslyrics%--tag-from-file=LYRICS="%lyricsfile%"%haslyrics% -T "DISCNUMBER=%cdnumber%" -T "TOTALDISCS=%totalcds%" -T "TOTALTRACKS=%numtracks%" %hascover%--picture="%coverfile%"%hascover% %source% -o %dest%
TOC извлечённого CD
     Трек |   Старт  | Длительность | Начальный сектор | Конечный сектор
    ---------------------------------------------------------------------
       1  |  0:00.00 |    5:13.74   |           0      |      23548
       2  |  5:13.74 |    2:50.08   |       23549      |      36306
       3  |  8:04.07 |    3:25.66   |       36307      |      51747
       4  | 11:29.73 |    3:47.25   |       51748      |      68797
       5  | 15:17.23 |    4:59.68   |       68798      |      91290
       6  | 20:17.16 |    4:10.20   |       91291      |     110060
       7  | 24:27.36 |    4:28.21   |      110061      |     130181
       8  | 28:55.57 |    2:57.43   |      130182      |     143499
       9  | 31:53.25 |    4:46.08   |      143500      |     164957
      10  | 36:39.33 |    4:26.07   |      164958      |     184914
      11  | 41:05.40 |    3:54.08   |      184915      |     202472
      12  | 44:59.48 |    4:53.25   |      202473      |     224472
      13  | 49:52.73 |    3:16.37   |      224473      |     239209
      14  | 53:09.35 |    4:35.43   |      239210      |     259877
      15  | 57:45.03 |    4:07.00   |      259878      |     278402
      16  | 61:52.03 |    4:07.36   |      278403      |     296963
      17  | 65:59.39 |    4:05.11   |      296964      |     315349
      18  | 70:04.50 |    4:21.57   |      315350      |     334981
      19  | 74:26.32 |    4:36.44   |      334982      |     355725
Характеристики диапазона извлечения и сообщения об ошибках
Выбранный диапазон
     Имя файла C:\Users\Алексей\Desktop\iPOD\MC1R - Teutonical Visions.wav
     Пиковый уровень 99.9 %
     Скорость извлечения 4.9 X
     Качество диапазона 100.0 %
     CRC теста F384C305
     CRC копии F384C305
     Копирование... OK
Ошибок не произошло
AccurateRip: сводка
Трек  1  отсутствует в базе данных
Трек  2  отсутствует в базе данных
Трек  3  отсутствует в базе данных
Трек  4  отсутствует в базе данных
Трек  5  отсутствует в базе данных
Трек  6  отсутствует в базе данных
Трек  7  отсутствует в базе данных
Трек  8  отсутствует в базе данных
Трек  9  отсутствует в базе данных
Трек 10  отсутствует в базе данных
Трек 11  отсутствует в базе данных
Трек 12  отсутствует в базе данных
Трек 13  отсутствует в базе данных
Трек 14  отсутствует в базе данных
Трек 15  отсутствует в базе данных
Трек 16  отсутствует в базе данных
Трек 17  отсутствует в базе данных
Трек 18  отсутствует в базе данных
Трек 19  отсутствует в базе данных
Ни одного трека нет в базе AccurateRip
Конец отчёта
==== Контрольная сумма отчёта 229E42D816E33F7E27F059F60DF9FAD5975C2489BDC4EFC68E3975804656FB37 ====
Код:
REM GENRE Industrial
REM DATE 2011
REM DISCID 24128713
REM COMMENT "ExactAudioCopy v1.0b3"
PERFORMER "MC1R"
TITLE "Teutonical Visions"
FILE "MC1R - Teutonical Visions.flac" WAVE
  TRACK 01 AUDIO
    TITLE "Sender Field"
    PERFORMER "MC1R"
    INDEX 01 00:00:00
  TRACK 02 AUDIO
    TITLE "For You"
    PERFORMER "MC1R"
    INDEX 01 05:13:74
  TRACK 03 AUDIO
    TITLE "Teutonical Visions"
    PERFORMER "MC1R"
    INDEX 01 08:04:07
  TRACK 04 AUDIO
    TITLE "Awakening"
    PERFORMER "MC1R"
    INDEX 01 11:29:73
  TRACK 05 AUDIO
    TITLE "Feminacy"
    PERFORMER "MC1R"
    INDEX 01 15:17:23
  TRACK 06 AUDIO
    TITLE "Fever Dreams Obsession (feat. Object)"
    PERFORMER "MC1R"
    INDEX 01 20:17:16
  TRACK 07 AUDIO
    TITLE "Beloved Friend (Freddy)"
    PERFORMER "MC1R"
    INDEX 01 24:27:36
  TRACK 08 AUDIO
    TITLE "They Are Here"
    PERFORMER "MC1R"
    INDEX 01 28:55:57
  TRACK 09 AUDIO
    TITLE "Atmospheric Tides"
    PERFORMER "MC1R"
    INDEX 01 31:53:25
  TRACK 10 AUDIO
    TITLE "Undergo (feat. LPF12)"
    PERFORMER "MC1R"
    INDEX 01 36:39:33
  TRACK 11 AUDIO
    TITLE "Sensibility"
    PERFORMER "MC1R"
    INDEX 01 41:05:40
  TRACK 12 AUDIO
    TITLE "Deployment"
    PERFORMER "MC1R"
    INDEX 01 44:59:48
  TRACK 13 AUDIO
    TITLE "Man Proposes, God Disposes"
    PERFORMER "MC1R"
    INDEX 01 49:52:73
  TRACK 14 AUDIO
    TITLE "Pattern Recognition"
    PERFORMER "MC1R"
    INDEX 01 53:09:35
  TRACK 15 AUDIO
    TITLE "Pharmakon"
    PERFORMER "MC1R"
    INDEX 01 57:45:03
  TRACK 16 AUDIO
    TITLE "Foreboding"
    PERFORMER "MC1R"
    INDEX 01 61:52:03
  TRACK 17 AUDIO
    TITLE "Dark Secrets (feat. Pyrroline)"
    PERFORMER "MC1R"
    INDEX 01 65:59:39
  TRACK 18 AUDIO
    TITLE "Insomaniac (Mental Disorder Remix by MC1R)"
    PERFORMER "MC1R"
    INDEX 01 70:04:50
  TRACK 19 AUDIO
    TITLE "Inhibition Level (Compunction Remix by MC1R)"
    PERFORMER "MC1R"
    INDEX 01 74:26:32
Код:
[url=https://fastpic.ru/view/31/2012/0303/58a4b952475e159639e99879df2dcaa8.jpg.html][img]http://i31.fastpic.ru/thumb/2012/0303/a8/58a4b952475e159639e99879df2dcaa8.jpeg[/img][/url][url=https://fastpic.ru/view/30/2012/0303/b0bec1dcbb808ce774e247a04ec6be0b.jpg.html][img]http://i30.fastpic.ru/thumb/2012/0303/0b/b0bec1dcbb808ce774e247a04ec6be0b.jpeg[/img][/url][url=https://fastpic.ru/view/28/2012/0303/de5c17b25b02dbd7b1abd5c5e6ec166e.jpg.html][img]http://i28.fastpic.ru/thumb/2012/0303/6e/de5c17b25b02dbd7b1abd5c5e6ec166e.jpeg[/img][/url][url=https://fastpic.ru/view/32/2012/0303/7d64ed42254f7d7dca6ed3684420e91e.jpg.html][img]http://i32.fastpic.ru/thumb/2012/0303/1e/7d64ed42254f7d7dca6ed3684420e91e.jpeg[/img][/url]
Правила, инструкции, FAQ!!!
Торрент  Добавлен [26 июн 2020, 20:09] Скачать торрент Магнет ссылка
Скачать торрент
[ Размер 12.45 КБ / Просмотров 3 ]

Статус
Проверен 
 
Размер  578.79 МБ
Приватный: Нет (DHT включён)
.torrent скачан  0
 


     Отправить личное сообщение
   
Страница 1 из 1
Показать сообщения за:  Поле сортировки  
Начать новую тему Ответить на тему


Сейчас этот форум просматривают: нет зарегистрированных пользователей и гости: 0


Вы не можете начинать темы
Вы не можете отвечать на сообщения
Вы не можете редактировать свои сообщения
Вы не можете удалять свои сообщения
Вы не можете добавлять вложения

Перейти:  
cron