Начать новую тему Ответить на тему
Статистика раздачи
Размер: 515.96 МБ | Добавлен: 26 июн 2020, 17:25 | Скачали: 0
Сидеров: 0  [0 байт/сек]    Личеров: 0  [0 байт/сек]
Пред. тема | След. тема 

Автор
Сообщение

СообщениеДобавлено: 26 июн 2020, 17:25 

Ответить с цитатой 

Leæther Strip
The Giant Minutes To The Dawn

Жанр: Electro, Industrial, EBM
Страна-производитель диска: Россия (Soyuz Music)
Год издания диска: 2007
Издатель (лейбл): Alfa Matrix
Номер по каталогу: AM-1090CD
Страна: Belgium
Аудио кодек: FLAC (*.flac)
Тип рипа: tracks+.cue
Битрейт аудио: lossless
Продолжительность: 01:11:21
Штрих-код: 4601250354279
Источник (релизер): what.cd (striktn9)
Наличие сканов в содержимом раздачи: нет
Треклист:
01 Will The Sun Return? (6:24)
02 Dirty Little Secret (4:46)
03 Sedated Nation (5:28)
04 Commotio (4:41)
05 The Trouble (4:50)
06 Go Ahead (6:40)
07 Caught In The Headlights (5:27)
08 Kill The Predator (5:11)
09 Blah Blah Blah (4:36)
10 Crucify Them (4:47)
11 This Age Of Neglect (4:53)
12 Seconds Last Forever (7:33)
13 Annie (6:22)
Код:
Exact Audio Copy V0.99 prebeta 5 from 4. May 2009
EAC extraction logfile from 21. January 2011, 14:56
Leжther Strip / The Giant Minutes To The Dawn
Used drive  : HL-DT-STDVD-RAM GH22LP20   Adapter: 4  ID: 0
Read mode               : Secure
Utilize accurate stream : Yes
Defeat audio cache      : Yes
Make use of C2 pointers : No
Read offset correction                      : 102
Overread into Lead-In and Lead-Out          : No
Fill up missing offset samples with silence : Yes
Delete leading and trailing silent blocks   : No
Null samples used in CRC calculations       : Yes
Used interface                              : Native Win32 interface for Win NT & 2000
Gap handling                                : Appended to previous track
Used output format : Internal WAV Routines
Sample format      : 44.100 Hz; 16 Bit; Stereo
TOC of the extracted CD
     Track |   Start  |  Length  | Start sector | End sector
    ---------------------------------------------------------
        1  |  0:00.00 |  6:24.62 |         0    |    28861
        2  |  6:24.62 |  4:46.12 |     28862    |    50323
        3  | 11:10.74 |  5:28.55 |     50324    |    74978
        4  | 16:39.54 |  4:41.54 |     74979    |    96107
        5  | 21:21.33 |  4:50.51 |     96108    |   117908
        6  | 26:12.09 |  6:40.42 |    117909    |   147950
        7  | 32:52.51 |  5:27.61 |    147951    |   172536
        8  | 38:20.37 |  5:11.12 |    172537    |   195873
        9  | 43:31.49 |  4:36.54 |    195874    |   216627
       10  | 48:08.28 |  4:47.24 |    216628    |   238176
       11  | 52:55.52 |  4:53.13 |    238177    |   260164
       12  | 57:48.65 |  7:33.33 |    260165    |   294172
       13  | 65:22.23 |  6:22.53 |    294173    |   322875
Track  1
     Filename D:\EAC\Leжther Strip\2007 - The Giant Minutes To The Dawn\01. Will The Sun Return .wav
     Pre-gap length  0:00:02.00
     Peak level 100.0 %
     Track quality 99.9 %
     Test CRC DBD933C0
     Copy CRC DBD933C0
     Track not present in AccurateRip database
     Copy OK
Track  2
     Filename D:\EAC\Leжther Strip\2007 - The Giant Minutes To The Dawn\02. Dirty Little Secret.wav
     Pre-gap length  0:00:02.00
     Peak level 100.0 %
     Track quality 100.0 %
     Test CRC FC5DC061
     Copy CRC FC5DC061
     Accurately ripped (confidence 10)  [C9C0C19E]
     Copy OK
Track  3
     Filename D:\EAC\Leжther Strip\2007 - The Giant Minutes To The Dawn\03. Sedated Nation.wav
     Pre-gap length  0:00:02.00
     Peak level 100.0 %
     Track quality 99.9 %
     Test CRC 6779FD48
     Copy CRC 6779FD48
     Accurately ripped (confidence 10)  [4766125D]
     Copy OK
Track  4
     Filename D:\EAC\Leжther Strip\2007 - The Giant Minutes To The Dawn\04. Commotio.wav
     Pre-gap length  0:00:02.00
     Peak level 100.0 %
     Track quality 100.0 %
     Test CRC 0D41068E
     Copy CRC 0D41068E
     Accurately ripped (confidence 10)  [B93D4A44]
     Copy OK
Track  5
     Filename D:\EAC\Leжther Strip\2007 - The Giant Minutes To The Dawn\05. The Trouble.wav
     Pre-gap length  0:00:02.00
     Peak level 100.0 %
     Track quality 100.0 %
     Test CRC E4B53F34
     Copy CRC E4B53F34
     Accurately ripped (confidence 10)  [CFFA58F3]
     Copy OK
Track  6
     Filename D:\EAC\Leжther Strip\2007 - The Giant Minutes To The Dawn\06. Go Ahead.wav
     Pre-gap length  0:00:02.00
     Peak level 100.0 %
     Track quality 100.0 %
     Test CRC D45AE6B6
     Copy CRC D45AE6B6
     Accurately ripped (confidence 10)  [45AA85EC]
     Copy OK
Track  7
     Filename D:\EAC\Leжther Strip\2007 - The Giant Minutes To The Dawn\07. Caught In The Headlights.wav
     Pre-gap length  0:00:02.00
     Peak level 100.0 %
     Track quality 100.0 %
     Test CRC 156869EF
     Copy CRC 156869EF
     Accurately ripped (confidence 10)  [E8237534]
     Copy OK
Track  8
     Filename D:\EAC\Leжther Strip\2007 - The Giant Minutes To The Dawn\08. Kill The Predator.wav
     Pre-gap length  0:00:02.00
     Peak level 100.0 %
     Track quality 99.9 %
     Test CRC AC6228BC
     Copy CRC AC6228BC
     Accurately ripped (confidence 10)  [45E56FF9]
     Copy OK
Track  9
     Filename D:\EAC\Leжther Strip\2007 - The Giant Minutes To The Dawn\09. Blah Blah Blah.wav
     Pre-gap length  0:00:02.00
     Peak level 100.0 %
     Track quality 100.0 %
     Test CRC C78397BC
     Copy CRC C78397BC
     Accurately ripped (confidence 10)  [17E8076F]
     Copy OK
Track 10
     Filename D:\EAC\Leжther Strip\2007 - The Giant Minutes To The Dawn\10. Crucify Them.wav
     Pre-gap length  0:00:02.00
     Peak level 100.0 %
     Track quality 100.0 %
     Test CRC CA018089
     Copy CRC CA018089
     Accurately ripped (confidence 10)  [FDA4E934]
     Copy OK
Track 11
     Filename D:\EAC\Leжther Strip\2007 - The Giant Minutes To The Dawn\11. This Age Of Neglect.wav
     Pre-gap length  0:00:02.00
     Peak level 100.0 %
     Track quality 100.0 %
     Test CRC 0EBE7C16
     Copy CRC 0EBE7C16
     Accurately ripped (confidence 10)  [182B2A25]
     Copy OK
Track 12
     Filename D:\EAC\Leжther Strip\2007 - The Giant Minutes To The Dawn\12. Seconds Last Forever.wav
     Pre-gap length  0:00:02.00
     Peak level 100.0 %
     Track quality 100.0 %
     Test CRC 71FA5FB1
     Copy CRC 71FA5FB1
     Accurately ripped (confidence 10)  [A468CBBD]
     Copy OK
Track 13
     Filename D:\EAC\Leжther Strip\2007 - The Giant Minutes To The Dawn\13. Annie.wav
     Pre-gap length  0:00:02.00
     Peak level 100.0 %
     Track quality 100.0 %
     Test CRC 787C8846
     Copy CRC 787C8846
     Accurately ripped (confidence 10)  [BDA15C52]
     Copy OK
12 track(s) accurately ripped
 1 track(s) not present in the AccurateRip database
Some tracks could not be verified as accurate
No errors occurred
End of status report
Код:
REM GENRE "Industrial"
REM DATE 2007
REM DISCID B010D10D
REM COMMENT "ExactAudioCopy v0.99pb5"
PERFORMER "Leather Strip"
TITLE "The Giant Minutes To The Dawn"
FILE "01. Will The Sun Return.flac" WAVE
  TRACK 01 AUDIO
    TITLE "Will The Sun Return?"
    PERFORMER "Leather Strip"
    FLAGS DCP
    INDEX 01 00:00:00
  TRACK 02 AUDIO
    TITLE "Dirty Little Secret"
    PERFORMER "Leather Strip"
    FLAGS DCP
    INDEX 00 06:22:62
FILE "02. Dirty Little Secret.flac" WAVE
    INDEX 01 00:00:00
  TRACK 03 AUDIO
    TITLE "Sedated Nation"
    PERFORMER "Leather Strip"
    FLAGS DCP
    INDEX 00 04:44:12
FILE "03. Sedated Nation.flac" WAVE
    INDEX 01 00:00:00
  TRACK 04 AUDIO
    TITLE "Commotio"
    PERFORMER "Leather Strip"
    FLAGS DCP
    INDEX 00 05:26:55
FILE "04. Commotio.flac" WAVE
    INDEX 01 00:00:00
  TRACK 05 AUDIO
    TITLE "The Trouble"
    PERFORMER "Leather Strip"
    FLAGS DCP
    INDEX 00 04:39:54
FILE "05. The Trouble.flac" WAVE
    INDEX 01 00:00:00
  TRACK 06 AUDIO
    TITLE "Go Ahead"
    PERFORMER "Leather Strip"
    FLAGS DCP
    INDEX 00 04:48:51
FILE "06. Go Ahead.flac" WAVE
    INDEX 01 00:00:00
  TRACK 07 AUDIO
    TITLE "Caught In The Headlights"
    PERFORMER "Leather Strip"
    FLAGS DCP
    INDEX 00 06:38:42
FILE "07. Caught In The Headlights.flac" WAVE
    INDEX 01 00:00:00
  TRACK 08 AUDIO
    TITLE "Kill The Predator"
    PERFORMER "Leather Strip"
    FLAGS DCP
    INDEX 00 05:25:61
FILE "08. Kill The Predator.flac" WAVE
    INDEX 01 00:00:00
  TRACK 09 AUDIO
    TITLE "Blah Blah Blah"
    PERFORMER "Leather Strip"
    FLAGS DCP
    INDEX 00 05:09:12
FILE "09. Blah Blah Blah.flac" WAVE
    INDEX 01 00:00:00
  TRACK 10 AUDIO
    TITLE "Crucify Them"
    PERFORMER "Leather Strip"
    FLAGS DCP
    INDEX 00 04:34:54
FILE "10. Crucify Them.flac" WAVE
    INDEX 01 00:00:00
  TRACK 11 AUDIO
    TITLE "This Age Of Neglect"
    PERFORMER "Leather Strip"
    FLAGS DCP
    INDEX 00 04:45:24
FILE "11. This Age Of Neglect.flac" WAVE
    INDEX 01 00:00:00
  TRACK 12 AUDIO
    TITLE "Seconds Last Forever"
    PERFORMER "Leather Strip"
    FLAGS DCP
    INDEX 00 04:51:13
FILE "12. Seconds Last Forever.flac" WAVE
    INDEX 01 00:00:00
  TRACK 13 AUDIO
    TITLE "Annie"
    PERFORMER "Leather Strip"
    FLAGS DCP
    INDEX 00 07:31:33
FILE "13. Annie.flac" WAVE
    INDEX 01 00:00:00
Код:
AUDIOCHECKER v2.0 beta (build 457) - by Dester - opdester@freemail.hu
~~~~~~~~~~~~~~~~~~~~~~~~~~~~~~~~~~
-=== DO NOT EDIT THIS FILE! ===-
Path: ...\Leather Strip - 2007 - The Giant Minutes To The Dawn [FLAC]
01 -=- 01. Will The Sun Return.flac -=- CDDA (100%)
02 -=- 02. Dirty Little Secret.flac -=- CDDA (100%)
03 -=- 03. Sedated Nation.flac -=- CDDA (100%)
04 -=- 04. Commotio.flac -=- CDDA (100%)
05 -=- 05. The Trouble.flac -=- CDDA (100%)
06 -=- 06. Go Ahead.flac -=- CDDA (99%)
07 -=- 07. Caught In The Headlights.flac -=- CDDA (99%)
08 -=- 08. Kill The Predator.flac -=- CDDA (100%)
09 -=- 09. Blah Blah Blah.flac -=- CDDA (100%)
10 -=- 10. Crucify Them.flac -=- CDDA (100%)
11 -=- 11. This Age Of Neglect.flac -=- CDDA (100%)
12 -=- 12. Seconds Last Forever.flac -=- CDDA (100%)
13 -=- 13. Annie.flac -=- CDDA (99%)
Summary 99,77% CDDA
234724820
Код:
[Verification date: 1/21/2011 3:00:48 PM]
[Disc ID: 0021d273-0151a612-b010d10d]
Track [ CRC    ] Status
 01 [a1d06597] (02/04) Accurately ripped
 02 [c9c0c19e] (10/12) Accurately ripped
 03 [4766125d] (10/12) Accurately ripped
 04 [b93d4a44] (10/12) Accurately ripped
 05 [cffa58f3] (10/12) Accurately ripped
 06 [45aa85ec] (10/12) Accurately ripped
 07 [e8237534] (10/12) Accurately ripped
 08 [45e56ff9] (10/12) Accurately ripped
 09 [17e8076f] (10/12) Accurately ripped
 10 [fda4e934] (10/12) Accurately ripped
 11 [182b2a25] (10/12) Accurately ripped
 12 [a468cbbd] (10/12) Accurately ripped
 13 [bda15c52] (10/12) Accurately ripped
Track [ CRC32  ] [W/O NULL] [  LOG   ]
 -- [3243A8EB] [919D25FE]
 01 [DBD933C0] [752EBBDA]   CRC32
 02 [FC5DC061] [4E58A467]   CRC32
 03 [6779FD48] [CD25CDE3]   CRC32
 04 [0D41068E] [D2AC9808]   CRC32
 05 [E4B53F34] [103AD5BF]   CRC32
 06 [D45AE6B6] [94A40A63]   CRC32
 07 [156869EF] [C5A8C4AE]   CRC32
 08 [AC6228BC] [904C8218]   CRC32
 09 [C78397BC] [A13C9EE0]   CRC32
 10 [CA018089] [41581AAC]   CRC32
 11 [0EBE7C16] [BA3F949F]   CRC32
 12 [71FA5FB1] [16655272]   CRC32
 13 [787C8846] [0FF31495]   CRC32
Правила, инструкции, FAQ!!!
Торрент  Добавлен [26 июн 2020, 17:25] Скачать торрент Магнет ссылка
Скачать торрент
[ Размер 11.53 КБ / Просмотров 1 ]

Статус
Проверен 
 
Размер  515.96 МБ
Приватный: Нет (DHT включён)
.torrent скачан  0
 


     Отправить личное сообщение
   
Страница 1 из 1
Показать сообщения за:  Поле сортировки  
Начать новую тему Ответить на тему


Сейчас этот форум просматривают: нет зарегистрированных пользователей и гости: 0


Вы не можете начинать темы
Вы не можете отвечать на сообщения
Вы не можете редактировать свои сообщения
Вы не можете удалять свои сообщения
Вы не можете добавлять вложения

Перейти:  
cron