Начать новую тему Ответить на тему
Статистика раздачи
Размер: 438.72 МБ | Добавлен: 26 июн 2020, 20:28 | Скачали: 0
Сидеров: 0  [0 байт/сек]    Личеров: 0  [0 байт/сек]
Пред. тема | След. тема 

Автор
Сообщение

СообщениеДобавлено: 26 июн 2020, 20:28 

Ответить с цитатой 

Shiv-R / Hold My Hand
Жанр: electro / industrial / EBM
Страна-производитель диска: Germany
Год издания диска: 2010
Издатель (лейбл): Infacted Recordings
Номер по каталогу: FACT 3130
Аудио кодек: FLAC (*.flac)
Тип рипа: image+.cue
Битрейт аудио: lossless
Продолжительность: 57:04.36
Источник (релизер): Физический носитель
Наличие сканов в содержимом раздачи: да
Треклист:
01. Buried [2:47]
02. Parasite [5:33]
03. The End (Pt. 1) [4:14]
04. Corruption [5:14]
05. Blood Spatter [4:51]
06. Happiness [5:01]
07. Burning Chrome [5:28]
08. Map The Feedback [5:25]
09. Taste [5:10]
10. Open My Vein [4:18]
11. Suffer [5:13]
12. The End (Pt. 2) [3:51]
Код:
Exact Audio Copy V0.99 prebeta 5 from 4. May 2009
Отчёт EAC об извлечении, выполненном 1. сентября 2010, 20:50
Shiv-R / Hold My Hand
Дисковод: Optiarc DVD RW AD-7173A   Adapter: 0  ID: 0
Режим чтения                 : Достоверность
Использование точного потока : Да
Отключение кэша аудио        : Да
Использование указателей C2  : Нет
Коррекция смещения при чтении                     : 48
Способность читать области Lead-in и Lead-out     : Нет
Заполнение пропущенных сэмплов тишиной            : Да
Удаление блоков с тишиной в начале и конце        : Нет
При вычислениях CRC использовались нулевые сэмплы : Да
Интерфейс                                         : Установленный внешний ASPI-интерфейс
Выходной формат          : Пользовательский кодировщик
Выбранный битрейт        : 1024 kBit/s
Качество                 : Высокий
Добавление ID3-тэга      : Нет
Утилита сжатия           : C:\Program Files\Exact Audio Copy\flac.exe
Дополнительные параметры : -6 -V -T "ARTIST=%a" -T "TITLE=%t" -T "ALBUM=%g" -T "DATE=%y" -T "TRACKNUMBER=%n" -T "GENRE=%m" -T "COMMENT=%e" %s -o %d
TOC извлечённого CD
     Трек |   Старт  | Длительность | Начальный сектор | Конечный сектор
    ---------------------------------------------------------------------
       1  |  0:00.00 |    2:46.40   |           0      |      12489
       2  |  2:46.40 |    5:33.28   |       12490      |      37492
       3  |  8:19.68 |    4:13.58   |       37493      |      56525
       4  | 12:33.51 |    5:14.26   |       56526      |      80101
       5  | 17:48.02 |    4:51.02   |       80102      |     101928
       6  | 22:39.04 |    5:00.55   |      101929      |     124483
       7  | 27:39.59 |    5:27.68   |      124484      |     149076
       8  | 33:07.52 |    5:25.13   |      149077      |     173464
       9  | 38:32.65 |    5:10.28   |      173465      |     196742
      10  | 43:43.18 |    4:17.66   |      196743      |     216083
      11  | 48:01.09 |    5:12.38   |      216084      |     239521
      12  | 53:13.47 |    3:50.64   |      239522      |     256835
Характеристики диапазона извлечения и сообщения об ошибках
Выбранный диапазон
     Имя файла H:\СКАЧКА\FLAC\1 TORRENT\Shiv-R - Hold My Hand.wav
     Пиковый уровень 98.8 %
     Качество диапазона 100.0 %
     CRC теста 12CC60ED
     CRC копии 12CC60ED
     Копирование... OK
Ошибок не произошло
AccurateRip: сводка
Трек  1  нет в базе данных
Трек  2  нет в базе данных
Трек  3  нет в базе данных
Трек  4  нет в базе данных
Трек  5  нет в базе данных
Трек  6  нет в базе данных
Трек  7  нет в базе данных
Трек  8  нет в базе данных
Трек  9  нет в базе данных
Трек 10  нет в базе данных
Трек 11  нет в базе данных
Трек 12  нет в базе данных
Ни одного трека нет в базе AccurateRip
Конец отчёта
Правила, инструкции, FAQ!!!
Торрент  Добавлен [26 июн 2020, 20:28] Скачать торрент Магнет ссылка
Скачать торрент
[ Размер 18.13 КБ / Просмотров 2 ]

Статус
Проверен 
 
Размер  438.72 МБ
Приватный: Нет (DHT включён)
.torrent скачан  0
 


     Отправить личное сообщение
   
Страница 1 из 1
Показать сообщения за:  Поле сортировки  
Начать новую тему Ответить на тему


Сейчас этот форум просматривают: нет зарегистрированных пользователей и гости: 0


Вы не можете начинать темы
Вы не можете отвечать на сообщения
Вы не можете редактировать свои сообщения
Вы не можете удалять свои сообщения
Вы не можете добавлять вложения

Перейти:  
cron