Начать новую тему Ответить на тему
Статистика раздачи
Размер: 894.7 МБ | Добавлен: 26 июн 2020, 17:42 | Скачали: 0
Сидеров: 0  [0 байт/сек]    Личеров: 0  [0 байт/сек]
Пред. тема | След. тема 

Автор
Сообщение

СообщениеДобавлено: 26 июн 2020, 17:42 

Ответить с цитатой 

Psy'Aviah / Introspection | Extrospection [Limited Edition]
Жанр: electro industrial / EBM
Страна-производитель диска: Belgium
Год издания диска: 2011
Издатель (лейбл): Alfa Matrix
Номер по каталогу: AM-2171-DCD
Аудиокодек: FLAC (*.flac)
Тип рипа: image+.cue
Битрейт аудио: lossless
Продолжительность Disc1: 58:05.00;
Продолжительность Disc2: 59:08.00
Источник (релизер): Физический носитель
Наличие сканов в содержимом раздачи: да
Disc1 - Introspection | Extrospection
01. SOS Overdose [4:05]
02. Procedure To Mistrust [3:59]
03. On My Own [4:42]
04. Deep Dark Desire (feat. Kari Berg) [3:34]
05. Virtual Gods [4:00]
06. Ok [3:17]
07. Nouvea Quiche (Feat. MC Dééjoohcéé & Thomas C Beerten) [3:49]
08. The Worst In Me [4:21]
09. Timor [5:42]
10. Human Garbage [3:40]
11. Song Of Independence [4:20]
12. My List [3:15]
13. Wired Life [4:33]
14. Home (feat. Lis Van Den Akker) [4:48]
Disc2 - Retrospection
01. Ok (M.I.K.E. remix) [6:47]
02. Virtual Gods (Radical G remix) [7:29]
03. SOS Overdose (Noisuf-X remix) [4:08]
04. Song Of Independence (remix by Ghost Of Ghost & Writer) [4:03]
05. Ok (Freakangel remix) [4:31]
06. Virtual Gods (SAM remix) [3:55]
07. SOS Overdose (BAK XIII remix) [4:00]
08. Tired (Misery Rendition) [3:43]
09. Something Evil (Chaos All Stars feat. Mona Roukachi Rendition) [5:11]
10. Home (Hartung & Schleinitz Rendition) [5:45]
11. SOS Overdose (Leæther Strip Rendition) [4:55]
12. The Worst In Me (NTRSN Rendition) [4:42]
Код:
Exact Audio Copy V0.99 prebeta 5 from 4. May 2009
Отчёт EAC об извлечении, выполненном 28. декабря 2011, 22:34
Psy'Aviah / Introspection | Extrospection
Дисковод: _NEC    DVD_RW ND-3520A   Adapter: 0  ID: 1
Режим чтения                 : Достоверность
Использование точного потока : Да
Отключение кэша аудио        : Да
Использование указателей C2  : Нет
Коррекция смещения при чтении                     : 48
Способность читать области Lead-in и Lead-out     : Нет
Заполнение пропущенных сэмплов тишиной            : Да
Удаление блоков с тишиной в начале и конце        : Нет
При вычислениях CRC использовались нулевые сэмплы : Да
Интерфейс                                         : Установленный внешний ASPI-интерфейс
Выходной формат          : Пользовательский кодировщик
Выбранный битрейт        : 1024 kBit/s
Качество                 : Высокий
Добавление ID3-тэга      : Нет
Утилита сжатия           : C:\Program Files\Exact Audio Copy\flac.exe
Дополнительные параметры : -6 -V -T "ARTIST=%a" -T "TITLE=%t" -T "ALBUM=%g" -T "DATE=%y" -T "TRACKNUMBER=%n" -T "GENRE=%m" -T "COMMENT=%e" %s -o %d
TOC извлечённого CD
     Трек |   Старт  | Длительность | Начальный сектор | Конечный сектор
    ---------------------------------------------------------------------
       1  |  0:00.00 |    4:04.71   |           0      |      18370
       2  |  4:04.71 |    3:58.59   |       18371      |      36279
       3  |  8:03.55 |    4:42.17   |       36280      |      57446
       4  | 12:45.72 |    3:34.15   |       57447      |      73511
       5  | 16:20.12 |    3:59.60   |       73512      |      91496
       6  | 20:19.72 |    3:16.46   |       91497      |     106242
       7  | 23:36.43 |    3:48.64   |      106243      |     123406
       8  | 27:25.32 |    4:21.32   |      123407      |     143013
       9  | 31:46.64 |    5:41.67   |      143014      |     168655
      10  | 37:28.56 |    3:39.70   |      168656      |     185150
      11  | 41:08.51 |    4:19.74   |      185151      |     204649
      12  | 45:28.50 |    3:14.73   |      204650      |     219272
      13  | 48:43.48 |    4:33.25   |      219273      |     239772
      14  | 53:16.73 |    4:48.02   |      239773      |     261374
Характеристики диапазона извлечения и сообщения об ошибках
Выбранный диапазон
     Имя файла E:\Psy'Aviah - Introspection-Extrospection.wav
     Пиковый уровень 98.0 %
     Качество диапазона 99.9 %
     CRC теста 315A1A28
     CRC копии 315A1A28
     Копирование... OK
Ошибок не произошло
AccurateRip: сводка
Трек  1  точность не определена (достоверность 1)  [BC91D3BC], AccurateRip вернул [64A457CF]
Трек  2  точность не определена (достоверность 1)  [B255451F], AccurateRip вернул [996D2C44]
Трек  3  точность не определена (достоверность 1)  [7A7B7C17], AccurateRip вернул [1DA4737F]
Трек  4  точность не определена (достоверность 1)  [1FD32D6B], AccurateRip вернул [4DBED62D]
Трек  5  точность не определена (достоверность 1)  [391E5692], AccurateRip вернул [EAF2365C]
Трек  6  точность не определена (достоверность 1)  [2C101783], AccurateRip вернул [7B5EF5D3]
Трек  7  точность не определена (достоверность 1)  [C1974E43], AccurateRip вернул [740936F2]
Трек  8  точность не определена (достоверность 1)  [FA3FB673], AccurateRip вернул [58DA0CAF]
Трек  9  точность не определена (достоверность 1)  [8F2033C3], AccurateRip вернул [370D885E]
Трек 10  точность не определена (достоверность 1)  [44ED0DA2], AccurateRip вернул [2411E175]
Трек 11  точность не определена (достоверность 1)  [8006B5D1], AccurateRip вернул [C49377EC]
Трек 12  точность не определена (достоверность 1)  [BB1166A8], AccurateRip вернул [FF0E9938]
Трек 13  точность не определена (достоверность 1)  [D0226531], AccurateRip вернул [2B483891]
Трек 14  точность не определена (достоверность 1)  [13C46260], AccurateRip вернул [844A3BD6]
Ни один трек не прошёл проверки на точность
В вашей базе может быть иной вариант штамповки диска
Конец отчёта
Код:
Exact Audio Copy V0.99 prebeta 5 from 4. May 2009
Отчёт EAC об извлечении, выполненном 28. декабря 2011, 23:20
Psy'Aviah / Introspection | Extrospection
Дисковод: _NEC    DVD_RW ND-3520A   Adapter: 0  ID: 1
Режим чтения                 : Достоверность
Использование точного потока : Да
Отключение кэша аудио        : Да
Использование указателей C2  : Нет
Коррекция смещения при чтении                     : 48
Способность читать области Lead-in и Lead-out     : Нет
Заполнение пропущенных сэмплов тишиной            : Да
Удаление блоков с тишиной в начале и конце        : Нет
При вычислениях CRC использовались нулевые сэмплы : Да
Интерфейс                                         : Установленный внешний ASPI-интерфейс
Выходной формат          : Пользовательский кодировщик
Выбранный битрейт        : 1024 kBit/s
Качество                 : Высокий
Добавление ID3-тэга      : Нет
Утилита сжатия           : C:\Program Files\Exact Audio Copy\flac.exe
Дополнительные параметры : -6 -V -T "ARTIST=%a" -T "TITLE=%t" -T "ALBUM=%g" -T "DATE=%y" -T "TRACKNUMBER=%n" -T "GENRE=%m" -T "COMMENT=%e" %s -o %d
TOC извлечённого CD
     Трек |   Старт  | Длительность | Начальный сектор | Конечный сектор
    ---------------------------------------------------------------------
       1  |  0:00.00 |    6:46.58   |           0      |      30507
       2  |  6:46.58 |    7:28.48   |       30508      |      64155
       3  | 14:15.31 |    4:08.09   |       64156      |      82764
       4  | 18:23.40 |    4:02.50   |       82765      |     100964
       5  | 22:26.15 |    4:31.23   |      100965      |     121312
       6  | 26:57.38 |    3:54.58   |      121313      |     138920
       7  | 30:52.21 |    3:59.67   |      138921      |     156912
       8  | 34:52.13 |    3:42.41   |      156913      |     173603
       9  | 38:34.54 |    5:11.18   |      173604      |     196946
      10  | 43:45.72 |    5:45.19   |      196947      |     222840
      11  | 49:31.16 |    4:54.73   |      222841      |     244963
      12  | 54:26.14 |    4:41.61   |      244964      |     266099
Характеристики диапазона извлечения и сообщения об ошибках
Выбранный диапазон
     Имя файла E:\Psy'Aviah - Introspection-Extrospection.wav
     Пиковый уровень 98.0 %
     Качество диапазона 100.0 %
     CRC теста 58CDE41A
     CRC копии 58CDE41A
     Копирование... OK
Ошибок не произошло
AccurateRip: сводка
Трек  1  точность не определена (достоверность 1)  [0B49D2B3], AccurateRip вернул [E60A3DD3]
Трек  2  точность не определена (достоверность 1)  [D72520CA], AccurateRip вернул [1B10AA2E]
Трек  3  точность не определена (достоверность 1)  [32B3CB2B], AccurateRip вернул [D4FAF0AB]
Трек  4  точность не определена (достоверность 1)  [A39736A4], AccurateRip вернул [119B82BF]
Трек  5  точность не определена (достоверность 1)  [F0C34728], AccurateRip вернул [138200F9]
Трек  6  точность не определена (достоверность 1)  [940BF7C9], AccurateRip вернул [9A0FA59D]
Трек  7  точность не определена (достоверность 1)  [FA103A58], AccurateRip вернул [6B27E40F]
Трек  8  точность не определена (достоверность 1)  [D02E092F], AccurateRip вернул [EA56BBC8]
Трек  9  точность не определена (достоверность 1)  [48C758D7], AccurateRip вернул [1A37E29A]
Трек 10  точность не определена (достоверность 1)  [F46A6463], AccurateRip вернул [E002D63D]
Трек 11  точность не определена (достоверность 1)  [AA307A19], AccurateRip вернул [4D14106A]
Трек 12  точность не определена (достоверность 1)  [A2E0DC1C], AccurateRip вернул [BCCFD101]
Ни один трек не прошёл проверки на точность
В вашей базе может быть иной вариант штамповки диска
Конец отчёта
Правила, инструкции, FAQ!!!
Торрент  Добавлен [26 июн 2020, 17:42] Скачать торрент Магнет ссылка
Скачать торрент
[ Размер 19.37 КБ / Просмотров 11 ]

Статус
Проверен 
 
Размер  894.7 МБ
Приватный: Нет (DHT включён)
.torrent скачан  0
 


     Отправить личное сообщение
   
Страница 1 из 1
Показать сообщения за:  Поле сортировки  
Начать новую тему Ответить на тему


Сейчас этот форум просматривают: нет зарегистрированных пользователей и гости: 0


Вы не можете начинать темы
Вы не можете отвечать на сообщения
Вы не можете редактировать свои сообщения
Вы не можете удалять свои сообщения
Вы не можете добавлять вложения

Перейти:  
cron