Начать новую тему Ответить на тему
Статистика раздачи
Размер: 601.87 МБ | Добавлен: 26 июн 2020, 20:13 | Скачали: 0
Сидеров: 0  [0 байт/сек]    Личеров: 0  [0 байт/сек]
Пред. тема | След. тема 

Автор
Сообщение

СообщениеДобавлено: 26 июн 2020, 20:13 

Ответить с цитатой 

Project Pitchfork / Blood [Limited Edition] (2CD)
Жанр: Electro / Industrial / EBM
Носитель: CD
Страна-производитель диска (релиза): Germany
Год издания: 2014
Издатель (лейбл): Trisol
Номер по каталогу: TRI 497 CD
Страна исполнителя (группы): Germany
Аудиокодек: FLAC (*.flac)
Тип рипа: tracks+.cue
Битрейт аудио: lossless
Продолжительность: 01:18:27
Источник (релизер): www.alllossless.com
Наличие сканов в содержимом раздачи: нет
Album CD:
1. Blood-Line (Never) [05:49]
2. Blood-Loss (Sometimes) [04:02]
3. Blood-Stained (Give Me Your Body) [04:23]
4. Blood-Money (No More) [04:00]
5. Blood-Moon (Romance) [04:50]
6. Blood-Diamond (See Him Running) [05:41]
7. Blood-Pressure (Just For My Pleasure) [04:44]
8. Blood-Shed (Dark River) [04:51]
9. Blood-Game (For You) [04:29]
10. Blood-Lust (Mental Island) [05:01]
11. Blood-Stream (Will I Be) [04:18]
Продолжительность: 00:52:08
Код:
X Lossless Decoder version 20140504 (147.0)
XLD extraction logfile from 2014-10-13 19:49:55 +0100
Project Pitchfork / Blood [Limited Edition] (Album CD)
Used drive : PLEXTOR BD-ROM PX-B120U (revision 1.06)
Media type : Pressed CD
Ripper mode             : XLD Secure Ripper
Disable audio cache     : OK for the drive with a cache less than 1375KiB
Make use of C2 pointers : NO
Read offset correction  : 696
Max retry count         : 20
Gap status              : Analyzed, Appended (except HTOA)
TOC of the extracted CD
     Track |   Start  |  Length  | Start sector | End sector
    ---------------------------------------------------------
        1  | 00:00:00 | 05:49:02 |         0    |    26176
        2  | 05:49:02 | 04:02:36 |     26177    |    44362
        3  | 09:51:38 | 04:22:55 |     44363    |    64067
        4  | 14:14:18 | 04:00:30 |     64068    |    82097
        5  | 18:14:48 | 04:50:16 |     82098    |   103863
        6  | 23:04:64 | 05:41:15 |    103864    |   129453
        7  | 28:46:04 | 04:43:47 |    129454    |   150725
        8  | 33:29:51 | 04:51:06 |    150726    |   172556
        9  | 38:20:57 | 04:28:74 |    172557    |   192730
       10  | 42:49:56 | 05:01:17 |    192731    |   215322
       11  | 47:50:73 | 04:18:00 |    215323    |   234672
AccurateRip Summary
    Disc not found in AccurateRip DB.
All Tracks
    Album gain               : -9.33 dB
    Peak                     : 0.988647
    Statistics
        Read error                           : 0
        Jitter error (maybe fixed)           : 0
        Retry sector count                   : 0
        Damaged sector count                 : 0
Track 01
    Filename : /Volumes/TEMP HDD/TMP Folder/Project Pitchfork - Blood (Limited Edition) (2014)/01 Project Pitchfork - Blood-Line (Never).flac
               /Volumes/TEMP HDD/TMP Folder/Project Pitchfork - Blood (Limited Edition) (2014)/01 Project Pitchfork - Blood-Line (Never).m4a
    Pre-gap length : 00:02:00
    Track gain               : -8.90 dB
    Peak                     : 0.988617
    CRC32 hash (test run)    : 58586833
    CRC32 hash               : 58586833
    CRC32 hash (skip zero)   : 7B0C7840
    AccurateRip v1 signature : 244F0B40
    AccurateRip v2 signature : 170DABE8
        ->Track not present in AccurateRip database.
    Statistics
        Read error                           : 0
        Jitter error (maybe fixed)           : 0
        Retry sector count                   : 0
        Damaged sector count                 : 0
Track 02
    Filename : /Volumes/TEMP HDD/TMP Folder/Project Pitchfork - Blood (Limited Edition) (2014)/02 Project Pitchfork - Blood-Loss (Sometimes).flac
               /Volumes/TEMP HDD/TMP Folder/Project Pitchfork - Blood (Limited Edition) (2014)/02 Project Pitchfork - Blood-Loss (Sometimes).m4a
    Track gain               : -9.56 dB
    Peak                     : 0.988617
    CRC32 hash (test run)    : 43892A22
    CRC32 hash               : 43892A22
    CRC32 hash (skip zero)   : 384062A0
    AccurateRip v1 signature : EC11AD1E
    AccurateRip v2 signature : 34B10E81
        ->Track not present in AccurateRip database.
    Statistics
        Read error                           : 0
        Jitter error (maybe fixed)           : 0
        Retry sector count                   : 0
        Damaged sector count                 : 0
Track 03
    Filename : /Volumes/TEMP HDD/TMP Folder/Project Pitchfork - Blood (Limited Edition) (2014)/03 Project Pitchfork - Blood-Stained (Give Me Your Body).flac
               /Volumes/TEMP HDD/TMP Folder/Project Pitchfork - Blood (Limited Edition) (2014)/03 Project Pitchfork - Blood-Stained (Give Me Your Body).m4a
    Track gain               : -9.80 dB
    Peak                     : 0.988617
    CRC32 hash (test run)    : B97E5BDA
    CRC32 hash               : B97E5BDA
    CRC32 hash (skip zero)   : B5763324
    AccurateRip v1 signature : 51024515
    AccurateRip v2 signature : 57FE9149
        ->Track not present in AccurateRip database.
    Statistics
        Read error                           : 0
        Jitter error (maybe fixed)           : 0
        Retry sector count                   : 0
        Damaged sector count                 : 0
Track 04
    Filename : /Volumes/TEMP HDD/TMP Folder/Project Pitchfork - Blood (Limited Edition) (2014)/04 Project Pitchfork - Blood-Money (No More).flac
               /Volumes/TEMP HDD/TMP Folder/Project Pitchfork - Blood (Limited Edition) (2014)/04 Project Pitchfork - Blood-Money (No More).m4a
    Track gain               : -9.51 dB
    Peak                     : 0.988617
    CRC32 hash (test run)    : F162D59C
    CRC32 hash               : F162D59C
    CRC32 hash (skip zero)   : 19294B1B
    AccurateRip v1 signature : 43328F60
    AccurateRip v2 signature : C85C2878
        ->Track not present in AccurateRip database.
    Statistics
        Read error                           : 0
        Jitter error (maybe fixed)           : 0
        Retry sector count                   : 0
        Damaged sector count                 : 0
Track 05
    Filename : /Volumes/TEMP HDD/TMP Folder/Project Pitchfork - Blood (Limited Edition) (2014)/05 Project Pitchfork - Blood-Moon (Romance).flac
               /Volumes/TEMP HDD/TMP Folder/Project Pitchfork - Blood (Limited Edition) (2014)/05 Project Pitchfork - Blood-Moon (Romance).m4a
    Track gain               : -9.62 dB
    Peak                     : 0.988617
    CRC32 hash (test run)    : 3824755B
    CRC32 hash               : 3824755B
    CRC32 hash (skip zero)   : DA6A89D0
    AccurateRip v1 signature : 42FA4D60
    AccurateRip v2 signature : 5B458D7E
        ->Track not present in AccurateRip database.
    Statistics
        Read error                           : 0
        Jitter error (maybe fixed)           : 0
        Retry sector count                   : 0
        Damaged sector count                 : 0
Track 06
    Filename : /Volumes/TEMP HDD/TMP Folder/Project Pitchfork - Blood (Limited Edition) (2014)/06 Project Pitchfork - Blood-Diamond (See Him Running).flac
               /Volumes/TEMP HDD/TMP Folder/Project Pitchfork - Blood (Limited Edition) (2014)/06 Project Pitchfork - Blood-Diamond (See Him Running).m4a
    Track gain               : -9.42 dB
    Peak                     : 0.988617
    CRC32 hash (test run)    : A71D5B20
    CRC32 hash               : A71D5B20
    CRC32 hash (skip zero)   : 90279160
    AccurateRip v1 signature : 313FBF2C
    AccurateRip v2 signature : 92B8B2B2
        ->Track not present in AccurateRip database.
    Statistics
        Read error                           : 0
        Jitter error (maybe fixed)           : 0
        Retry sector count                   : 0
        Damaged sector count                 : 0
Track 07
    Filename : /Volumes/TEMP HDD/TMP Folder/Project Pitchfork - Blood (Limited Edition) (2014)/07 Project Pitchfork - Blood-Pressure (Just For My Pleasure).flac
               /Volumes/TEMP HDD/TMP Folder/Project Pitchfork - Blood (Limited Edition) (2014)/07 Project Pitchfork - Blood-Pressure (Just For My Pleasure).m4a
    Track gain               : -8.81 dB
    Peak                     : 0.988617
    CRC32 hash (test run)    : D39D3D8C
    CRC32 hash               : D39D3D8C
    CRC32 hash (skip zero)   : D57CE03D
    AccurateRip v1 signature : 16226E9D
    AccurateRip v2 signature : B835A00F
        ->Track not present in AccurateRip database.
    Statistics
        Read error                           : 0
        Jitter error (maybe fixed)           : 0
        Retry sector count                   : 0
        Damaged sector count                 : 0
Track 08
    Filename : /Volumes/TEMP HDD/TMP Folder/Project Pitchfork - Blood (Limited Edition) (2014)/08 Project Pitchfork - Blood-Shed (Dark River).flac
               /Volumes/TEMP HDD/TMP Folder/Project Pitchfork - Blood (Limited Edition) (2014)/08 Project Pitchfork - Blood-Shed (Dark River).m4a
    Track gain               : -8.92 dB
    Peak                     : 0.988617
    CRC32 hash (test run)    : 9CA25B3E
    CRC32 hash               : 9CA25B3E
    CRC32 hash (skip zero)   : 8F263B28
    AccurateRip v1 signature : F8CA6CFF
    AccurateRip v2 signature : 991B2622
        ->Track not present in AccurateRip database.
    Statistics
        Read error                           : 0
        Jitter error (maybe fixed)           : 0
        Retry sector count                   : 0
        Damaged sector count                 : 0
Track 09
    Filename : /Volumes/TEMP HDD/TMP Folder/Project Pitchfork - Blood (Limited Edition) (2014)/09 Project Pitchfork - Blood-Game (For You).flac
               /Volumes/TEMP HDD/TMP Folder/Project Pitchfork - Blood (Limited Edition) (2014)/09 Project Pitchfork - Blood-Game (For You).m4a
    Track gain               : -9.34 dB
    Peak                     : 0.988617
    CRC32 hash (test run)    : 74B25E16
    CRC32 hash               : 74B25E16
    CRC32 hash (skip zero)   : 15F6528B
    AccurateRip v1 signature : ABBA0EF7
    AccurateRip v2 signature : 7075FB2A
        ->Track not present in AccurateRip database.
    Statistics
        Read error                           : 0
        Jitter error (maybe fixed)           : 0
        Retry sector count                   : 0
        Damaged sector count                 : 0
Track 10
    Filename : /Volumes/TEMP HDD/TMP Folder/Project Pitchfork - Blood (Limited Edition) (2014)/10 Project Pitchfork - Blood-Lust (Mental Island).flac
               /Volumes/TEMP HDD/TMP Folder/Project Pitchfork - Blood (Limited Edition) (2014)/10 Project Pitchfork - Blood-Lust (Mental Island).m4a
    Track gain               : -9.26 dB
    Peak                     : 0.988647
    CRC32 hash (test run)    : 3AE7781D
    CRC32 hash               : 3AE7781D
    CRC32 hash (skip zero)   : E630CA48
    AccurateRip v1 signature : C4869F19
    AccurateRip v2 signature : 8F1F2670
        ->Track not present in AccurateRip database.
    Statistics
        Read error                           : 0
        Jitter error (maybe fixed)           : 0
        Retry sector count                   : 0
        Damaged sector count                 : 0
Track 11
    Filename : /Volumes/TEMP HDD/TMP Folder/Project Pitchfork - Blood (Limited Edition) (2014)/11 Project Pitchfork - Blood-Stream (Will I Be).flac
               /Volumes/TEMP HDD/TMP Folder/Project Pitchfork - Blood (Limited Edition) (2014)/11 Project Pitchfork - Blood-Stream (Will I Be).m4a
    Track gain               : -9.10 dB
    Peak                     : 0.988617
    CRC32 hash (test run)    : 4B03794F
    CRC32 hash               : 4B03794F
    CRC32 hash (skip zero)   : 9D0F89D4
    AccurateRip v1 signature : 3977FC70
    AccurateRip v2 signature : C9E5F12F
        ->Track not present in AccurateRip database.
    Statistics
        Read error                           : 0
        Jitter error (maybe fixed)           : 0
        Retry sector count                   : 0
        Damaged sector count                 : 0
No errors occurred
End of status report
Код:
TITLE "Blood [Limited Edition] (Album CD)"
PERFORMER "Project Pitchfork"
CATALOG 4260063944963
REM GENRE "Electronic"
REM DATE "2014"
REM DISCNUMBER 1
REM TOTALDISCS 2
REM DISCID 900C380B
REM REPLAYGAIN_ALBUM_GAIN -9.33 dB
REM REPLAYGAIN_ALBUM_PEAK 0.988647
FILE "01 Project Pitchfork - Blood-Line (Never).flac" WAVE
  TRACK 01 AUDIO
    TITLE "Blood-Line (Never)"
    PERFORMER "Project Pitchfork"
    REM REPLAYGAIN_TRACK_GAIN -8.90 dB
    REM REPLAYGAIN_TRACK_PEAK 0.988617
    INDEX 01 00:00:00
FILE "02 Project Pitchfork - Blood-Loss (Sometimes).flac" WAVE
  TRACK 02 AUDIO
    TITLE "Blood-Loss (Sometimes)"
    PERFORMER "Project Pitchfork"
    REM REPLAYGAIN_TRACK_GAIN -9.56 dB
    REM REPLAYGAIN_TRACK_PEAK 0.988617
    INDEX 01 00:00:00
FILE "03 Project Pitchfork - Blood-Stained (Give Me Your Body).flac" WAVE
  TRACK 03 AUDIO
    TITLE "Blood-Stained (Give Me Your Body)"
    PERFORMER "Project Pitchfork"
    REM REPLAYGAIN_TRACK_GAIN -9.80 dB
    REM REPLAYGAIN_TRACK_PEAK 0.988617
    INDEX 01 00:00:00
FILE "04 Project Pitchfork - Blood-Money (No More).flac" WAVE
  TRACK 04 AUDIO
    TITLE "Blood-Money (No More)"
    PERFORMER "Project Pitchfork"
    REM REPLAYGAIN_TRACK_GAIN -9.51 dB
    REM REPLAYGAIN_TRACK_PEAK 0.988617
    INDEX 01 00:00:00
FILE "05 Project Pitchfork - Blood-Moon (Romance).flac" WAVE
  TRACK 05 AUDIO
    TITLE "Blood-Moon (Romance)"
    PERFORMER "Project Pitchfork"
    REM REPLAYGAIN_TRACK_GAIN -9.62 dB
    REM REPLAYGAIN_TRACK_PEAK 0.988617
    INDEX 01 00:00:00
FILE "06 Project Pitchfork - Blood-Diamond (See Him Running).flac" WAVE
  TRACK 06 AUDIO
    TITLE "Blood-Diamond (See Him Running)"
    PERFORMER "Project Pitchfork"
    REM REPLAYGAIN_TRACK_GAIN -9.42 dB
    REM REPLAYGAIN_TRACK_PEAK 0.988617
    INDEX 01 00:00:00
FILE "07 Project Pitchfork - Blood-Pressure (Just For My Pleasure).flac" WAVE
  TRACK 07 AUDIO
    TITLE "Blood-Pressure (Just For My Pleasure)"
    PERFORMER "Project Pitchfork"
    REM REPLAYGAIN_TRACK_GAIN -8.81 dB
    REM REPLAYGAIN_TRACK_PEAK 0.988617
    INDEX 01 00:00:00
FILE "08 Project Pitchfork - Blood-Shed (Dark River).flac" WAVE
  TRACK 08 AUDIO
    TITLE "Blood-Shed (Dark River)"
    PERFORMER "Project Pitchfork"
    REM REPLAYGAIN_TRACK_GAIN -8.92 dB
    REM REPLAYGAIN_TRACK_PEAK 0.988617
    INDEX 01 00:00:00
FILE "09 Project Pitchfork - Blood-Game (For You).flac" WAVE
  TRACK 09 AUDIO
    TITLE "Blood-Game (For You)"
    PERFORMER "Project Pitchfork"
    REM REPLAYGAIN_TRACK_GAIN -9.34 dB
    REM REPLAYGAIN_TRACK_PEAK 0.988617
    INDEX 01 00:00:00
FILE "10 Project Pitchfork - Blood-Lust (Mental Island).flac" WAVE
  TRACK 10 AUDIO
    TITLE "Blood-Lust (Mental Island)"
    PERFORMER "Project Pitchfork"
    REM REPLAYGAIN_TRACK_GAIN -9.26 dB
    REM REPLAYGAIN_TRACK_PEAK 0.988647
    INDEX 01 00:00:00
FILE "11 Project Pitchfork - Blood-Stream (Will I Be).flac" WAVE
  TRACK 11 AUDIO
    TITLE "Blood-Stream (Will I Be)"
    PERFORMER "Project Pitchfork"
    REM REPLAYGAIN_TRACK_GAIN -9.10 dB
    REM REPLAYGAIN_TRACK_PEAK 0.988617
    INDEX 01 00:00:00
Код:
AUDIOCHECKER v2.0 beta (build 457) - by Dester - opdester@freemail.hu
~~~~~~~~~~~~~~~~~~~~~~~~~~~~~~~~~~
-=== DO NOT EDIT THIS FILE! ===-
Path: ...\01 Album CD
01 -=- 01 Project Pitchfork - Blood-Line (Never).flac -=- CDDA (100%)
02 -=- 02 Project Pitchfork - Blood-Loss (Sometimes).flac -=- CDDA (100%)
03 -=- 03 Project Pitchfork - Blood-Stained (Give Me Your Body).flac -=- CDDA (100%)
04 -=- 04 Project Pitchfork - Blood-Money (No More).flac -=- CDDA (100%)
05 -=- 05 Project Pitchfork - Blood-Moon (Romance).flac -=- CDDA (100%)
06 -=- 06 Project Pitchfork - Blood-Diamond (See Him Running).flac -=- CDDA (100%)
07 -=- 07 Project Pitchfork - Blood-Pressure (Just For My Pleasure).flac -=- CDDA (100%)
08 -=- 08 Project Pitchfork - Blood-Shed (Dark River).flac -=- CDDA (100%)
09 -=- 09 Project Pitchfork - Blood-Game (For You).flac -=- CDDA (100%)
10 -=- 10 Project Pitchfork - Blood-Lust (Mental Island).flac -=- CDDA (100%)
11 -=- 11 Project Pitchfork - Blood-Stream (Will I Be).flac -=- CDDA (100%)
Summary 100,00% CDDA
205018356

Bonus CD:
1. Blood-Night [05:43]
2. Blood-Thirst [04:31]
3. Blood-Stained (RMX) [04:29]
4. Blood-Money (RMX) [05:04]
5. Blood-Line (RMX) [06:32]
Продолжительность: 00:26:19
Код:
X Lossless Decoder version 20140504 (147.0)
XLD extraction logfile from 2014-10-13 20:18:06 +0100
Project Pitchfork / Blood [Limited Edition] (Bonus CD)
Used drive : PLEXTOR BD-ROM PX-B120U (revision 1.06)
Media type : Pressed CD
Ripper mode             : XLD Secure Ripper
Disable audio cache     : OK for the drive with a cache less than 1375KiB
Make use of C2 pointers : NO
Read offset correction  : 696
Max retry count         : 20
Gap status              : Analyzed, Appended (except HTOA)
TOC of the extracted CD
     Track |   Start  |  Length  | Start sector | End sector
    ---------------------------------------------------------
        1  | 00:00:00 | 05:42:47 |         0    |    25696
        2  | 05:42:47 | 04:30:68 |     25697    |    46014
        3  | 10:13:40 | 04:29:34 |     46015    |    66223
        4  | 14:42:74 | 05:04:07 |     66224    |    89030
        5  | 19:47:06 | 06:32:27 |     89031    |   118457
AccurateRip Summary
    Disc not found in AccurateRip DB.
All Tracks
    Album gain               : -9.50 dB
    Peak                     : 0.988617
    Statistics
        Read error                           : 0
        Jitter error (maybe fixed)           : 0
        Retry sector count                   : 0
        Damaged sector count                 : 0
Track 01
    Filename : /Volumes/TEMP HDD/TMP Folder/Project Pitchfork - Blood (Limited Edition) (2014)/01 Project Pitchfork - Blood-Night.flac
               /Volumes/TEMP HDD/TMP Folder/Project Pitchfork - Blood (Limited Edition) (2014)/01 Project Pitchfork - Blood-Night.m4a
    Pre-gap length : 00:02:00
    Track gain               : -8.36 dB
    Peak                     : 0.988617
    CRC32 hash (test run)    : 039EF53B
    CRC32 hash               : 039EF53B
    CRC32 hash (skip zero)   : 9444C9CD
    AccurateRip v1 signature : 8F2B4DA2
    AccurateRip v2 signature : 303261AC
        ->Track not present in AccurateRip database.
    Statistics
        Read error                           : 0
        Jitter error (maybe fixed)           : 0
        Retry sector count                   : 0
        Damaged sector count                 : 0
Track 02
    Filename : /Volumes/TEMP HDD/TMP Folder/Project Pitchfork - Blood (Limited Edition) (2014)/02 Project Pitchfork - Blood-Thirst.flac
               /Volumes/TEMP HDD/TMP Folder/Project Pitchfork - Blood (Limited Edition) (2014)/02 Project Pitchfork - Blood-Thirst.m4a
    Track gain               : -9.32 dB
    Peak                     : 0.988617
    CRC32 hash (test run)    : 63334416
    CRC32 hash               : 63334416
    CRC32 hash (skip zero)   : 60B2A5B1
    AccurateRip v1 signature : EB395F55
    AccurateRip v2 signature : 07D26E92
        ->Track not present in AccurateRip database.
    Statistics
        Read error                           : 0
        Jitter error (maybe fixed)           : 0
        Retry sector count                   : 0
        Damaged sector count                 : 0
Track 03
    Filename : /Volumes/TEMP HDD/TMP Folder/Project Pitchfork - Blood (Limited Edition) (2014)/03 Project Pitchfork - Blood-Stained (RMX).flac
               /Volumes/TEMP HDD/TMP Folder/Project Pitchfork - Blood (Limited Edition) (2014)/03 Project Pitchfork - Blood-Stained (RMX).m4a
    Track gain               : -10.07 dB
    Peak                     : 0.988617
    CRC32 hash (test run)    : 1BF59A1D
    CRC32 hash               : 1BF59A1D
    CRC32 hash (skip zero)   : C76E5FC4
    AccurateRip v1 signature : A02D8282
    AccurateRip v2 signature : 6CED2FC6
        ->Track not present in AccurateRip database.
    Statistics
        Read error                           : 0
        Jitter error (maybe fixed)           : 0
        Retry sector count                   : 0
        Damaged sector count                 : 0
Track 04
    Filename : /Volumes/TEMP HDD/TMP Folder/Project Pitchfork - Blood (Limited Edition) (2014)/04 Project Pitchfork - Blood-Money (RMX).flac
               /Volumes/TEMP HDD/TMP Folder/Project Pitchfork - Blood (Limited Edition) (2014)/04 Project Pitchfork - Blood-Money (RMX).m4a
    Track gain               : -9.44 dB
    Peak                     : 0.988586
    CRC32 hash (test run)    : F1B00C2E
    CRC32 hash               : F1B00C2E
    CRC32 hash (skip zero)   : A9CE6FEE
    AccurateRip v1 signature : C76BCC05
    AccurateRip v2 signature : 6D28A686
        ->Track not present in AccurateRip database.
    Statistics
        Read error                           : 0
        Jitter error (maybe fixed)           : 0
        Retry sector count                   : 0
        Damaged sector count                 : 0
Track 05
    Filename : /Volumes/TEMP HDD/TMP Folder/Project Pitchfork - Blood (Limited Edition) (2014)/05 Project Pitchfork - Blood-Line (RMX).flac
               /Volumes/TEMP HDD/TMP Folder/Project Pitchfork - Blood (Limited Edition) (2014)/05 Project Pitchfork - Blood-Line (RMX).m4a
    Track gain               : -9.66 dB
    Peak                     : 0.988617
    CRC32 hash (test run)    : 8C463801
    CRC32 hash               : 8C463801
    CRC32 hash (skip zero)   : BF8A2722
    AccurateRip v1 signature : 8C0024C2
    AccurateRip v2 signature : 3919D08F
        ->Track not present in AccurateRip database.
    Statistics
        Read error                           : 0
        Jitter error (maybe fixed)           : 0
        Retry sector count                   : 0
        Damaged sector count                 : 0
No errors occurred
End of status report
Код:
TITLE "Blood [Limited Edition] (Bonus CD)"
PERFORMER "Project Pitchfork"
CATALOG 4260063944963
REM GENRE "Electronic"
REM DATE "2014"
REM DISCNUMBER 2
REM TOTALDISCS 2
REM DISCID 40062B05
REM REPLAYGAIN_ALBUM_GAIN -9.50 dB
REM REPLAYGAIN_ALBUM_PEAK 0.988617
FILE "01 Project Pitchfork - Blood-Night.flac" WAVE
  TRACK 01 AUDIO
    TITLE "Blood-Night"
    PERFORMER "Project Pitchfork"
    REM REPLAYGAIN_TRACK_GAIN -8.36 dB
    REM REPLAYGAIN_TRACK_PEAK 0.988617
    INDEX 01 00:00:00
FILE "02 Project Pitchfork - Blood-Thirst.flac" WAVE
  TRACK 02 AUDIO
    TITLE "Blood-Thirst"
    PERFORMER "Project Pitchfork"
    REM REPLAYGAIN_TRACK_GAIN -9.32 dB
    REM REPLAYGAIN_TRACK_PEAK 0.988617
    INDEX 01 00:00:00
FILE "03 Project Pitchfork - Blood-Stained (RMX).flac" WAVE
  TRACK 03 AUDIO
    TITLE "Blood-Stained (RMX)"
    PERFORMER "Project Pitchfork"
    REM REPLAYGAIN_TRACK_GAIN -10.07 dB
    REM REPLAYGAIN_TRACK_PEAK 0.988617
    INDEX 01 00:00:00
FILE "04 Project Pitchfork - Blood-Money (RMX).flac" WAVE
  TRACK 04 AUDIO
    TITLE "Blood-Money (RMX)"
    PERFORMER "Project Pitchfork"
    REM REPLAYGAIN_TRACK_GAIN -9.44 dB
    REM REPLAYGAIN_TRACK_PEAK 0.988586
    INDEX 01 00:00:00
FILE "05 Project Pitchfork - Blood-Line (RMX).flac" WAVE
  TRACK 05 AUDIO
    TITLE "Blood-Line (RMX)"
    PERFORMER "Project Pitchfork"
    REM REPLAYGAIN_TRACK_GAIN -9.66 dB
    REM REPLAYGAIN_TRACK_PEAK 0.988617
    INDEX 01 00:00:00
Код:
AUDIOCHECKER v2.0 beta (build 457) - by Dester - opdester@freemail.hu
~~~~~~~~~~~~~~~~~~~~~~~~~~~~~~~~~~
-=== DO NOT EDIT THIS FILE! ===-
Path: ...\02 Bonus CD
01 -=- 01 Project Pitchfork - Blood-Night.flac -=- CDDA (100%)
02 -=- 02 Project Pitchfork - Blood-Thirst.flac -=- CDDA (100%)
03 -=- 03 Project Pitchfork - Blood-Stained (RMX).flac -=- CDDA (100%)
04 -=- 04 Project Pitchfork - Blood-Money (RMX).flac -=- CDDA (100%)
05 -=- 05 Project Pitchfork - Blood-Line (RMX).flac -=- CDDA (100%)
Summary 100,00% CDDA
6121076
Правила, инструкции, FAQ!!!
Торрент  Добавлен [26 июн 2020, 20:13] Скачать торрент Магнет ссылка
Скачать торрент
[ Размер 14.15 КБ / Просмотров 3 ]

Статус
Проверен 
 
Размер  601.87 МБ
Приватный: Нет (DHT включён)
.torrent скачан  0
 


     Отправить личное сообщение
   
Страница 1 из 1
Показать сообщения за:  Поле сортировки  
Начать новую тему Ответить на тему


Сейчас этот форум просматривают: нет зарегистрированных пользователей и гости: 0


Вы не можете начинать темы
Вы не можете отвечать на сообщения
Вы не можете редактировать свои сообщения
Вы не можете удалять свои сообщения
Вы не можете добавлять вложения

Перейти:  
cron