Начать новую тему Ответить на тему
Статистика раздачи
Размер: 426.48 МБ | Добавлен: 26 июн 2020, 17:07 | Скачали: 0
Сидеров: 0  [0 байт/сек]    Личеров: 0  [0 байт/сек]
Пред. тема | След. тема 

Автор
Сообщение

СообщениеДобавлено: 26 июн 2020, 17:07 

Ответить с цитатой 

Pax - The Power Of Pure Intellect
Жанр: Electro, Industrial, EBM
Страна-производитель диска: Germany
Год издания диска: 1997
Издатель (лейбл): Zoth Ommog
Номер по каталогу: cd zot 165
Страна: Germany
Аудиокодек: FLAC (*.flac)
Тип рипа: image+.cue
Битрейт аудио: lossless
Продолжительность: 00:51:56
Источник (релизер): Собственный рип
Наличие сканов в содержимом раздачи: да, PNG 600dpi

01. Coined World 4:24
02. Low-Down 5:56
03. Catch My Fire 8:17
04. Welcome To Your System 4:43
05. The Power Of Pure Intellect 5:13
06. Aboriginal 7:00
07. Delicious Land 4:59
08. Catch My Fire (Remix) 6:33
09. Spaced Out! 4:46
Код:
Exact Audio Copy V0.99 prebeta 5 from 4. May 2009
Отчёт EAC об извлечении, выполненном 29. января 2012, 16:41
Pax / The Power Of Pure Intellect
Дисковод: ASUS    DRW-22B2ST   Adapter: 2  ID: 0
Режим чтения                 : Достоверность
Использование точного потока : Да
Отключение кэша аудио        : Да
Использование указателей C2  : Нет
Коррекция смещения при чтении                     : 6
Способность читать области Lead-in и Lead-out     : Нет
Заполнение пропущенных сэмплов тишиной            : Да
Удаление блоков с тишиной в начале и конце        : Нет
При вычислениях CRC использовались нулевые сэмплы : Да
Интерфейс                                         : Встроенный Win32-интерфейс для Win NT/2000
Выходной формат          : Пользовательский кодировщик
Выбранный битрейт        : 1024 kBit/s
Качество                 : Высокий
Добавление ID3-тэга      : Нет
Утилита сжатия           : C:\Program Files (x86)\Exact Audio Copy\FLAC\FLAC.EXE
Дополнительные параметры : -8 -V -T "ARTIST=%a" -T "TITLE=%t" -T "ALBUM=%g" -T "DATE=%y" -T "TRACKNUMBER=%n" -T "GENRE=%m" -T "COMMENT=%e" %s -o %d
TOC извлечённого CD
     Трек |   Старт  | Длительность | Начальный сектор | Конечный сектор
    ---------------------------------------------------------------------
       1  |  0:00.00 |    4:24.52   |           0      |      19851
       2  |  4:24.52 |    5:56.48   |       19852      |      46599
       3  | 10:21.25 |    8:17.59   |       46600      |      83933
       4  | 18:39.09 |    4:43.42   |       83934      |     105200
       5  | 23:22.51 |    5:13.37   |      105201      |     128712
       6  | 28:36.13 |    7:00.15   |      128713      |     160227
       7  | 35:36.28 |    4:59.63   |      160228      |     182715
       8  | 40:36.16 |    6:33.66   |      182716      |     212256
       9  | 47:10.07 |    4:46.54   |      212257      |     233760
Характеристики диапазона извлечения и сообщения об ошибках
Выбранный диапазон
     Имя файла D:\РАЗДАЧИ!!!!\Pax\Pax - The Power Of Pure Intellect\Pax - The Power Of Pure Intellect.wav
     Пиковый уровень 100.0 %
     Качество диапазона 99.9 %
     CRC теста A8A87D60
     CRC копии A8A87D60
     Копирование... OK
Ошибок не произошло
AccurateRip: сводка
Трек  1  нет в базе данных
Трек  2  нет в базе данных
Трек  3  нет в базе данных
Трек  4  нет в базе данных
Трек  5  нет в базе данных
Трек  6  нет в базе данных
Трек  7  нет в базе данных
Трек  8  нет в базе данных
Трек  9  нет в базе данных
Ни одного трека нет в базе AccurateRip
Конец отчёта
 
Код:
REM GENRE "Electro Industrial"
REM DATE 1997
REM DISCID 680C2C09
REM COMMENT "ExactAudioCopy v0.99pb5"
PERFORMER "Pax"
TITLE "The Power Of Pure Intellect"
FILE "Pax - The Power Of Pure Intellect.flac" WAVE
  TRACK 01 AUDIO
    TITLE "Coined World"
    PERFORMER "Pax"
    INDEX 01 00:00:00
  TRACK 02 AUDIO
    TITLE "Low-Down"
    PERFORMER "Pax"
    INDEX 01 04:24:52
  TRACK 03 AUDIO
    TITLE "Catch My Fire"
    PERFORMER "Pax"
    INDEX 01 10:21:25
  TRACK 04 AUDIO
    TITLE "Welcome To Your System"
    PERFORMER "Pax"
    INDEX 01 18:39:09
  TRACK 05 AUDIO
    TITLE "The Power Of Pure Intellect"
    PERFORMER "Pax"
    INDEX 01 23:22:51
  TRACK 06 AUDIO
    TITLE "Aboriginal"
    PERFORMER "Pax"
    INDEX 01 28:36:13
  TRACK 07 AUDIO
    TITLE "Delicious Land"
    PERFORMER "Pax"
    INDEX 01 35:36:28
  TRACK 08 AUDIO
    TITLE "Catch My Fire (Remix)"
    PERFORMER "Pax"
    INDEX 01 40:36:16
  TRACK 09 AUDIO
    TITLE "Spaced Out!"
    PERFORMER "Pax"
    INDEX 01 47:10:07
   
AUDIOCHECKER v2.0 beta (build 457) - by Dester - opdester@freemail.hu
~~~~~~~~~~~~~~~~~~~~~~~~~~~~~~~~~~
-=== DO NOT EDIT THIS FILE! ===-
Path: ...\Pax - The Power Of Pure Intellect
1 -=- Pax - The Power Of Pure Intellect.flac -=- CDDA (100%)
111918708[/pre]
Pax - High Speed Digital Spirit Processing - 1998
Правила, инструкции, FAQ!!!
Торрент  Добавлен [26 июн 2020, 17:07] Скачать торрент Магнет ссылка
Скачать торрент
[ Размер 17.67 КБ / Просмотров 4 ]

Статус
Проверен 
 
Размер  426.48 МБ
Приватный: Нет (DHT включён)
.torrent скачан  0
 


     Отправить личное сообщение
   
Страница 1 из 1
Показать сообщения за:  Поле сортировки  
Начать новую тему Ответить на тему


Сейчас этот форум просматривают: нет зарегистрированных пользователей и гости: 0


Вы не можете начинать темы
Вы не можете отвечать на сообщения
Вы не можете редактировать свои сообщения
Вы не можете удалять свои сообщения
Вы не можете добавлять вложения

Перейти:  
cron