Начать новую тему Ответить на тему
Статистика раздачи
Размер: 619.38 МБ | Добавлен: 26 июн 2020, 17:07 | Скачали: 0
Сидеров: 0  [0 байт/сек]    Личеров: 0  [0 байт/сек]
Пред. тема | След. тема 

Автор
Сообщение

СообщениеДобавлено: 26 июн 2020, 17:07 

Ответить с цитатой 

Pax - High Speed Digital Spirit Processing
Жанр: Electro, Industrial, EBM
Страна-производитель диска: Germany
Год издания диска: 1998
Издатель (лейбл): Zoth Ommog
Номер по каталогу: CD ZOT 237
Страна: Germany
Аудиокодек: FLAC (*.flac)
Тип рипа: image+.cue
Битрейт аудио: lossless
Продолжительность: 01:06:58
Источник (релизер): Собственный рип
Наличие сканов в содержимом раздачи: да, PNG 600dpi

01. Visual Effect 4:13
02. Tesselated Parts 4:17
03. Tempted Rose 6:31
04. Accolyte 6:37
05. Drip 6:31
06. The Providence 6:05
07. Frozen Landscape 4:53
08. Outfaced! 5:29
09. Antafagosta 5:16
10. Be Prepared 5:03
Bonus Tracks
11. Accolyte (Dark Illumination Remix) 7:05
12. Accolyte (Funker Vogt Remix) 4:53
Код:
Exact Audio Copy V0.99 prebeta 5 from 4. May 2009
Отчёт EAC об извлечении, выполненном 29. января 2012, 17:07
Pax / High Speed Digital Spirit Processing
Дисковод: ASUS    DRW-22B2ST   Adapter: 2  ID: 0
Режим чтения                 : Достоверность
Использование точного потока : Да
Отключение кэша аудио        : Да
Использование указателей C2  : Нет
Коррекция смещения при чтении                     : 6
Способность читать области Lead-in и Lead-out     : Нет
Заполнение пропущенных сэмплов тишиной            : Да
Удаление блоков с тишиной в начале и конце        : Нет
При вычислениях CRC использовались нулевые сэмплы : Да
Интерфейс                                         : Встроенный Win32-интерфейс для Win NT/2000
Выходной формат          : Пользовательский кодировщик
Выбранный битрейт        : 1024 kBit/s
Качество                 : Высокий
Добавление ID3-тэга      : Нет
Утилита сжатия           : C:\Program Files (x86)\Exact Audio Copy\FLAC\FLAC.EXE
Дополнительные параметры : -8 -V -T "ARTIST=%a" -T "TITLE=%t" -T "ALBUM=%g" -T "DATE=%y" -T "TRACKNUMBER=%n" -T "GENRE=%m" -T "COMMENT=%e" %s -o %d
TOC извлечённого CD
     Трек |   Старт  | Длительность | Начальный сектор | Конечный сектор
    ---------------------------------------------------------------------
       1  |  0:00.00 |    4:13.15   |           0      |      18989
       2  |  4:13.15 |    4:17.50   |       18990      |      38314
       3  |  8:30.65 |    6:31.57   |       38315      |      67696
       4  | 15:02.47 |    6:37.37   |       67697      |      97508
       5  | 21:40.09 |    6:31.15   |       97509      |     126848
       6  | 28:11.24 |    6:05.10   |      126849      |     154233
       7  | 34:16.34 |    4:53.04   |      154234      |     176212
       8  | 39:09.38 |    5:29.57   |      176213      |     200944
       9  | 44:39.20 |    5:16.23   |      200945      |     224667
      10  | 49:55.43 |    5:03.37   |      224668      |     247429
      11  | 54:59.05 |    7:05.17   |      247430      |     279321
      12  | 62:04.22 |    4:53.71   |      279322      |     301367
Характеристики диапазона извлечения и сообщения об ошибках
Выбранный диапазон
     Имя файла D:\РАЗДАЧИ!!!!\Pax\Pax - High Speed Digital Spirit Processing\Pax - High Speed Digital Spirit Processing.wav
     Пиковый уровень 100.0 %
     Качество диапазона 100.0 %
     CRC теста 526DEFD2
     CRC копии 526DEFD2
     Копирование... OK
Ошибок не произошло
AccurateRip: сводка
Трек  1  нет в базе данных
Трек  2  нет в базе данных
Трек  3  нет в базе данных
Трек  4  нет в базе данных
Трек  5  нет в базе данных
Трек  6  нет в базе данных
Трек  7  нет в базе данных
Трек  8  нет в базе данных
Трек  9  нет в базе данных
Трек 10  нет в базе данных
Трек 11  нет в базе данных
Трек 12  нет в базе данных
Ни одного трека нет в базе AccurateRip
Конец отчёта
Код:
REM GENRE "Electro Industrial"
REM DATE 1998
REM DISCID 9B0FB20C
REM COMMENT "ExactAudioCopy v0.99pb5"
PERFORMER "Pax"
TITLE "High Speed Digital Spirit Processing"
FILE "Pax - High Speed Digital Spirit Processing.flac" WAVE
  TRACK 01 AUDIO
    TITLE "Visual Effect"
    PERFORMER "Pax"
    INDEX 01 00:00:00
  TRACK 02 AUDIO
    TITLE "Tesselated Parts"
    PERFORMER "Pax"
    INDEX 01 04:13:15
  TRACK 03 AUDIO
    TITLE "Tempted Rose"
    PERFORMER "Pax"
    INDEX 01 08:30:65
  TRACK 04 AUDIO
    TITLE "Accolyte"
    PERFORMER "Pax"
    INDEX 01 15:02:47
  TRACK 05 AUDIO
    TITLE "Drip"
    PERFORMER "Pax"
    INDEX 01 21:40:09
  TRACK 06 AUDIO
    TITLE "The Providence"
    PERFORMER "Pax"
    INDEX 01 28:11:24
  TRACK 07 AUDIO
    TITLE "Frozen Landscape"
    PERFORMER "Pax"
    INDEX 01 34:16:34
  TRACK 08 AUDIO
    TITLE "Outfaced!"
    PERFORMER "Pax"
    INDEX 01 39:09:38
  TRACK 09 AUDIO
    TITLE "Antafagosta"
    PERFORMER "Pax"
    INDEX 01 44:39:20
  TRACK 10 AUDIO
    TITLE "Be Prepared"
    PERFORMER "Pax"
    INDEX 01 49:55:43
  TRACK 11 AUDIO
    TITLE "Accolyte (Dark Illumination Remix)"
    PERFORMER "Pax"
    INDEX 01 54:59:05
  TRACK 12 AUDIO
    TITLE "Accolyte (Funker Vogt Remix)"
    PERFORMER "Pax"
    INDEX 01 62:04:22
   
Код:
AUDIOCHECKER v2.0 beta (build 457) - by Dester - opdester@freemail.hu
~~~~~~~~~~~~~~~~~~~~~~~~~~~~~~~~~~
-=== DO NOT EDIT THIS FILE! ===-
Path: ...\Pax - High Speed Digital Spirit Processing
1 -=- Pax - High Speed Digital Spirit Processing.flac -=- CDDA (100%)
139398308
Pax - The Power Of Pure Intellect - 1997
Правила, инструкции, FAQ!!!
Торрент  Добавлен [26 июн 2020, 17:07] Скачать торрент Магнет ссылка
Скачать торрент
[ Размер 13.27 КБ / Просмотров 5 ]

Статус
Проверен 
 
Размер  619.38 МБ
Приватный: Нет (DHT включён)
.torrent скачан  0
 


     Отправить личное сообщение
   
Страница 1 из 1
Показать сообщения за:  Поле сортировки  
Начать новую тему Ответить на тему


Сейчас этот форум просматривают: нет зарегистрированных пользователей и гости: 0


Вы не можете начинать темы
Вы не можете отвечать на сообщения
Вы не можете редактировать свои сообщения
Вы не можете удалять свои сообщения
Вы не можете добавлять вложения

Перейти:  
cron