Начать новую тему Ответить на тему
Статистика раздачи
Размер: 348.67 МБ | Добавлен: 26 июн 2020, 20:46 | Скачали: 0
Сидеров: 0  [0 байт/сек]    Личеров: 0  [0 байт/сек]
Пред. тема | След. тема 

Автор
Сообщение

СообщениеДобавлено: 26 июн 2020, 20:46 

Ответить с цитатой 

Mist / Fragments Of Transformation
Жанр: Electro-Industrial, EBM
Страна-производитель диска: неизвестна
Год издания диска: 2000
Издатель (лейбл): неизвестен
Страна: Германия
Аудио кодек: FLAC (*.flac)
Тип рипа: image+.cue
Битрейт аудио: lossless
Продолжительность: 51:07
Источник (релизер): nnm.ru (ddddrr)
Наличие сканов в содержимом раздачи: да
Треклист:
01. The Face Of Truth (3:59)
02. Transformation (5:26)
03. Shapeless Faces (4:46)
04. Untitled (4:05)
05. Freedom Of Mind (3:51)
06. Distorted Reality (4:05)
07. Escape (4:05)
08. A Dream (5:45)
09. Sometimes (4:25)
10. ...And (4:58)
11. Mist (5:35)
Код:
Exact Audio Copy V0.99 prebeta 5 from 4. May 2009
EAC extraction logfile from 7. April 2011, 0:43
Mist / Fragments Of Transformation
Used drive  : PIONEER DVD-RW  DVR-112D   Adapter: 0  ID: 0
Read mode               : Secure
Utilize accurate stream : Yes
Defeat audio cache      : Yes
Make use of C2 pointers : No
Read offset correction                      : 48
Overread into Lead-In and Lead-Out          : No
Fill up missing offset samples with silence : Yes
Delete leading and trailing silent blocks   : No
Null samples used in CRC calculations       : Yes
Used interface                              : Native Win32 interface for Win NT & 2000
Gap handling                                : Appended to previous track
Used output format              : User Defined Encoder
Selected bitrate                : 320 kBit/s
Quality                         : High
Add ID3 tag                     : No
Command line compressor         : C:\Program Files\Exact Audio Copy\FLAC\FLAC.EXE
Additional command line options : -6 -V -T "ARTIST=%a" -T "TITLE=%t" -T "ALBUM=%g" -T "DATE=%y" -T "TRACKNUMBER=%n" -T "GENRE=%m" -T "COMMENT=%e" %s -o %d
TOC of the extracted CD
     Track |   Start  |  Length  | Start sector | End sector
    ---------------------------------------------------------
        1  |  0:00.00 |  3:59.00 |         0    |    17924
        2  |  3:59.00 |  5:26.20 |     17925    |    42394
        3  |  9:25.20 |  4:46.55 |     42395    |    63899
        4  | 14:12.00 |  4:05.20 |     63900    |    82294
        5  | 18:17.20 |  3:51.55 |     82295    |    99674
        6  | 22:09.00 |  4:05.10 |     99675    |   118059
        7  | 26:14.10 |  4:05.25 |    118060    |   136459
        8  | 30:19.35 |  5:45.65 |    136460    |   162399
        9  | 36:05.25 |  4:25.70 |    162400    |   182344
       10  | 40:31.20 |  4:58.25 |    182345    |   204719
       11  | 45:29.45 |  5:35.31 |    204720    |   229875
Track  1
     Filename D:\Multimedia\wav\Mist - Fragments Of Transformation - 2000\01. The Face Of Truth.wav
     Pre-gap length  0:00:02.00
     Peak level 98.5 %
     Track quality 100.0 %
     Test CRC F0958605
     Copy CRC F0958605
     Accurately ripped (confidence 2)  [0642C9AA]
     Copy OK
Track  2
     Filename D:\Multimedia\wav\Mist - Fragments Of Transformation - 2000\02. Transformation.wav
     Peak level 98.5 %
     Track quality 100.0 %
     Test CRC 0CE4C182
     Copy CRC 0CE4C182
     Accurately ripped (confidence 2)  [2E75F43E]
     Copy OK
Track  3
     Filename D:\Multimedia\wav\Mist - Fragments Of Transformation - 2000\03. Shapeless Faces.wav
     Peak level 98.5 %
     Track quality 100.0 %
     Test CRC 27FE5416
     Copy CRC 27FE5416
     Accurately ripped (confidence 2)  [3A80DAF5]
     Copy OK
Track  4
     Filename D:\Multimedia\wav\Mist - Fragments Of Transformation - 2000\04. Untitled.wav
     Peak level 98.5 %
     Track quality 100.0 %
     Test CRC E6EBADBF
     Copy CRC E6EBADBF
     Accurately ripped (confidence 2)  [1335BBDF]
     Copy OK
Track  5
     Filename D:\Multimedia\wav\Mist - Fragments Of Transformation - 2000\05. Freedom Of Mind.wav
     Peak level 98.5 %
     Track quality 100.0 %
     Test CRC 2D121F9C
     Copy CRC 2D121F9C
     Accurately ripped (confidence 2)  [BA7B3478]
     Copy OK
Track  6
     Filename D:\Multimedia\wav\Mist - Fragments Of Transformation - 2000\06. Distorted Reality.wav
     Peak level 98.5 %
     Track quality 100.0 %
     Test CRC 19F11273
     Copy CRC 19F11273
     Accurately ripped (confidence 2)  [48126103]
     Copy OK
Track  7
     Filename D:\Multimedia\wav\Mist - Fragments Of Transformation - 2000\07. Escape.wav
     Peak level 98.5 %
     Track quality 100.0 %
     Test CRC 0BEBE22D
     Copy CRC 0BEBE22D
     Accurately ripped (confidence 2)  [04719A58]
     Copy OK
Track  8
     Filename D:\Multimedia\wav\Mist - Fragments Of Transformation - 2000\08. A Dream.wav
     Peak level 98.5 %
     Track quality 100.0 %
     Test CRC B7BDDF3F
     Copy CRC B7BDDF3F
     Accurately ripped (confidence 2)  [5374E613]
     Copy OK
Track  9
     Filename D:\Multimedia\wav\Mist - Fragments Of Transformation - 2000\09. Sometimes.wav
     Peak level 98.7 %
     Track quality 100.0 %
     Test CRC B8B2DAA8
     Copy CRC B8B2DAA8
     Accurately ripped (confidence 2)  [8ABEB766]
     Copy OK
Track 10
     Filename D:\Multimedia\wav\Mist - Fragments Of Transformation - 2000\10. ... And.wav
     Peak level 98.5 %
     Track quality 100.0 %
     Test CRC 9A6EB79B
     Copy CRC 9A6EB79B
     Accurately ripped (confidence 2)  [B8E30E1E]
     Copy OK
Track 11
     Filename D:\Multimedia\wav\Mist - Fragments Of Transformation - 2000\11. Mist.wav
     Peak level 98.8 %
     Track quality 100.0 %
     Test CRC A2457BE2
     Copy CRC A2457BE2
     Accurately ripped (confidence 2)  [9701AD9F]
     Copy OK
All tracks accurately ripped
No errors occurred
End of status report
Код:
REM DATE 2000
REM DISCID 8F0BF90B
REM COMMENT "ExactAudioCopy v0.99pb5"
PERFORMER "Mist"
TITLE "Fragments Of Transformation"
FILE "01. The Face Of Truth.flac" WAVE
  TRACK 01 AUDIO
    TITLE "The Face Of Truth"
    PERFORMER "Mist"
    INDEX 01 00:00:00
FILE "02. Transformation.flac" WAVE
  TRACK 02 AUDIO
    TITLE "Transformation"
    PERFORMER "Mist"
    INDEX 01 00:00:00
FILE "03. Shapeless Faces.flac" WAVE
  TRACK 03 AUDIO
    TITLE "Shapeless Faces"
    PERFORMER "Mist"
    INDEX 01 00:00:00
FILE "04. Untitled.flac" WAVE
  TRACK 04 AUDIO
    TITLE "Untitled"
    PERFORMER "Mist"
    INDEX 01 00:00:00
FILE "05. Freedom Of Mind.flac" WAVE
  TRACK 05 AUDIO
    TITLE "Freedom Of Mind"
    PERFORMER "Mist"
    INDEX 01 00:00:00
FILE "06. Distorted Reality.flac" WAVE
  TRACK 06 AUDIO
    TITLE "Distorted Reality"
    PERFORMER "Mist"
    INDEX 01 00:00:00
FILE "07. Escape.flac" WAVE
  TRACK 07 AUDIO
    TITLE "Escape"
    PERFORMER "Mist"
    INDEX 01 00:00:00
FILE "08. A Dream.flac" WAVE
  TRACK 08 AUDIO
    TITLE "A Dream"
    PERFORMER "Mist"
    INDEX 01 00:00:00
FILE "09. Sometimes.flac" WAVE
  TRACK 09 AUDIO
    TITLE "Sometimes"
    PERFORMER "Mist"
    INDEX 01 00:00:00
FILE "10. ... And.flac" WAVE
  TRACK 10 AUDIO
    TITLE "... And"
    PERFORMER "Mist"
    INDEX 01 00:00:00
FILE "11. Mist.flac" WAVE
  TRACK 11 AUDIO
    TITLE "Mist"
    PERFORMER "Mist"
    INDEX 01 00:00:00
Доп. информация: ознакомился с альбомом на http://www.synthema.ru/ благодаря человеку под ником Zmeter.
Далее, заинтересовавшись, обнаружил данный материал на nnm.ru в беспотерьном качестве.
Взятый с файлообменников материал был выложен здесь- его качество оставляло желать лучшего.
Однако, на днях ко мне в личку обратился arxigen(https://rutracker.org/forum/profile.php?mode=viewprofile&u=6557874), он же ddddrr на nnm.ru. Он передал мне правильно сделанный рип, чем исключительно порадовал меня.
Послушав материал, я оценил качество. Спасибо, arxigen/ddddrr!
РАЗДАЧА ОБНОВЛЕНА!
перезакачайте торрент.
Если кто-нибудь подскажет, где и как в России можно приобрести диск, буду крайне благодарен.
http://www.discogs.com/artist/Mist+%282%29
на last.fm проект смешали с каким-то брит-попом, блюэ!
вот и вся информация!
мрачная, динамичная, по-немецки резкая и точёная, простая, но не примитивная(!) электронная музыка с вокалом без примочек. Тем не менее, легка для восприятия и приятна на слух.
альбом напоминает ранние композиции FLA, например, Landslide.
IMHO.
Раздаю, когда бодрствую, т.е. с 8 утра до полуночи (GMT+5 Ekaterinburg)
Скорость раздачи ограничивается возможностями ADSL (около 0.5Mbps) и количеством сидеров.
Правила, инструкции, FAQ!!!
Торрент  Добавлен [26 июн 2020, 20:46] Скачать торрент Магнет ссылка
Скачать торрент
[ Размер 29.25 КБ / Просмотров 6 ]

Статус
Проверен 
 
Размер  348.67 МБ
Приватный: Нет (DHT включён)
.torrent скачан  0
 


     Отправить личное сообщение
   
Страница 1 из 1
Показать сообщения за:  Поле сортировки  
Начать новую тему Ответить на тему


Сейчас этот форум просматривают: нет зарегистрированных пользователей и гости: 0


Вы не можете начинать темы
Вы не можете отвечать на сообщения
Вы не можете редактировать свои сообщения
Вы не можете удалять свои сообщения
Вы не можете добавлять вложения

Перейти:  
cron