Начать новую тему Ответить на тему
Статистика раздачи
Размер: 527.92 МБ | Добавлен: 26 июн 2020, 20:59 | Скачали: 0
Сидеров: 0  [0 байт/сек]    Личеров: 0  [0 байт/сек]
Пред. тема | След. тема 

Автор
Сообщение

СообщениеДобавлено: 26 июн 2020, 20:59 

Ответить с цитатой 

Mikroben Krieg / Final Cut
Жанр: Electro, Industrial, EBM, IDM
Страна-производитель диска: Portugal
Год издания диска: 2010
Издатель (лейбл): Thisco
Номер по каталогу: Thisk.54-2010
Страна: Portugal
Аудио кодек: FLAC (*.flac)
Тип рипа: image+.cue
Битрейт аудио: lossless
Продолжительность: 1:16:57.40
Источник (релизер): CD из личной коллекции.
Наличие сканов в содержимом раздачи: да
Треклист:
01. Soul Engineering 5:03
02. Sleepwalkers 4:49
03. Scene Memory 3:57
04. The Responsive Ear 4:14
05. Jihad 4:57
06. Sinus Addicted 4:17
07. Inimputável / With Broto Verbo 4:42
08. Paradox 3:51
09. Nightmare Dance 7:39
10. Inquietude 4:11
11. Sleepwalkers (Eden Synthetic Corps remix) 6:11
12. The Responsive Ear (Shhh... Remix) 3:15
13. Jihad (Sci-Fi Industries Remix) 5:31
14. Sleepwalkers (Waste Disposal Machine Remix) 5:39
15. Nightmare Dance (Structura Remix) 4:39
16. Inquietude (Mimetic Remix) 3:54
Код:
Exact Audio Copy V0.99 prebeta 5 from 4. May 2009
Отчёт EAC об извлечении, выполненном 26. февраля 2011, 14:03
Mikroben Krieg / Final Cut
Дисковод: TSSTcorpCDDVDW TS-L632H   Adapter: 0  ID: 0
Режим чтения                 : Достоверность
Использование точного потока : Да
Отключение кэша аудио        : Да
Использование указателей C2  : Нет
Коррекция смещения при чтении                     : 6
Способность читать области Lead-in и Lead-out     : Нет
Заполнение пропущенных сэмплов тишиной            : Да
Удаление блоков с тишиной в начале и конце        : Нет
При вычислениях CRC использовались нулевые сэмплы : Да
Интерфейс                                         : Встроенный Win32-интерфейс для Win NT/2000
Выходной формат          : Пользовательский кодировщик
Выбранный битрейт        : 1024 kBit/s
Качество                 : Высокий
Добавление ID3-тэга      : Нет
Утилита сжатия           : C:\Program Files\Exact Audio Copy\FLAC\FLAC.EXE
Дополнительные параметры : -6 -V -T "ARTIST=%a" -T "TITLE=%t" -T "ALBUM=%g" -T "DATE=%y" -T "TRACKNUMBER=%n" -T "GENRE=%m" -T "COMMENT=%e" %s -o %d
TOC извлечённого CD
     Трек |   Старт  | Длительность | Начальный сектор | Конечный сектор
    ---------------------------------------------------------------------
       1  |  0:00.00 |    5:03.29   |           0      |      22753
       2  |  5:03.29 |    4:49.00   |       22754      |      44428
       3  |  9:52.29 |    3:57.13   |       44429      |      62216
       4  | 13:49.42 |    4:14.39   |       62217      |      81305
       5  | 18:04.06 |    4:57.71   |       81306      |     103651
       6  | 23:02.02 |    4:17.50   |      103652      |     122976
       7  | 27:19.52 |    4:42.21   |      122977      |     144147
       8  | 32:01.73 |    3:51.37   |      144148      |     161509
       9  | 35:53.35 |    7:39.33   |      161510      |     195967
      10  | 43:32.68 |    4:11.40   |      195968      |     214832
      11  | 47:44.33 |    6:12.00   |      214833      |     242732
      12  | 53:56.33 |    3:15.43   |      242733      |     257400
      13  | 57:12.01 |    5:31.72   |      257401      |     282297
      14  | 62:43.73 |    5:40.00   |      282298      |     307797
      15  | 68:23.73 |    4:39.42   |      307798      |     328764
      16  | 73:03.40 |    3:54.00   |      328765      |     346314
Характеристики диапазона извлечения и сообщения об ошибках
Выбранный диапазон
     Имя файла C:\Users\Алексей\Desktop\iPOD\Mikroben Krieg - Final Cut.wav
     Пиковый уровень 98.8 %
     Качество диапазона 100.0 %
     CRC теста 4630D6AD
     CRC копии 4630D6AD
     Копирование... OK
Ошибок не произошло
AccurateRip: сводка
Трек  1  нет в базе данных
Трек  2  нет в базе данных
Трек  3  нет в базе данных
Трек  4  нет в базе данных
Трек  5  нет в базе данных
Трек  6  нет в базе данных
Трек  7  нет в базе данных
Трек  8  нет в базе данных
Трек  9  нет в базе данных
Трек 10  нет в базе данных
Трек 11  нет в базе данных
Трек 12  нет в базе данных
Трек 13  нет в базе данных
Трек 14  нет в базе данных
Трек 15  нет в базе данных
Трек 16  нет в базе данных
Ни одного трека нет в базе AccurateRip
Конец отчёта
Код:
REM GENRE Industrial
REM DATE 2010
REM DISCID E3120910
REM COMMENT "ExactAudioCopy v0.99pb5"
PERFORMER "Mikroben Krieg"
TITLE "Final Cut"
FILE "Mikroben Krieg - Final Cut.flac" WAVE
  TRACK 01 AUDIO
    TITLE "Soul Engineering"
    PERFORMER "Mikroben Krieg"
    FLAGS DCP
    INDEX 01 00:00:00
  TRACK 02 AUDIO
    TITLE "Sleepwalkers"
    PERFORMER "Mikroben Krieg"
    FLAGS DCP
    INDEX 00 05:01:29
    INDEX 01 05:03:29
  TRACK 03 AUDIO
    TITLE "Scene Memory"
    PERFORMER "Mikroben Krieg"
    FLAGS DCP
    INDEX 00 09:50:29
    INDEX 01 09:52:29
  TRACK 04 AUDIO
    TITLE "The Responsive Ear"
    PERFORMER "Mikroben Krieg"
    FLAGS DCP
    INDEX 00 13:47:42
    INDEX 01 13:49:42
  TRACK 05 AUDIO
    TITLE "Jihad"
    PERFORMER "Mikroben Krieg"
    FLAGS DCP
    INDEX 00 18:02:06
    INDEX 01 18:04:06
  TRACK 06 AUDIO
    TITLE "Sinus Addicted"
    PERFORMER "Mikroben Krieg"
    FLAGS DCP
    INDEX 00 23:00:02
    INDEX 01 23:02:02
  TRACK 07 AUDIO
    TITLE "Inimputavel (With Broto Verbo)"
    PERFORMER "Mikroben Krieg"
    FLAGS DCP
    INDEX 00 27:17:52
    INDEX 01 27:19:52
  TRACK 08 AUDIO
    TITLE "Paradox"
    PERFORMER "Mikroben Krieg"
    FLAGS DCP
    INDEX 00 31:59:73
    INDEX 01 32:01:73
  TRACK 09 AUDIO
    TITLE "Nightmare Dance"
    PERFORMER "Mikroben Krieg"
    FLAGS DCP
    INDEX 00 35:51:35
    INDEX 01 35:53:35
  TRACK 10 AUDIO
    TITLE "Inquietude"
    PERFORMER "Mikroben Krieg"
    FLAGS DCP
    INDEX 00 43:30:68
    INDEX 01 43:32:68
  TRACK 11 AUDIO
    TITLE "Sleepwalkers (Eden Synthetic Corps Remix)"
    PERFORMER "Mikroben Krieg"
    FLAGS DCP
    INDEX 00 47:42:33
    INDEX 01 47:44:33
  TRACK 12 AUDIO
    TITLE "The Responsive Ear (Shhh... Remix)"
    PERFORMER "Mikroben Krieg"
    FLAGS DCP
    INDEX 00 53:54:33
    INDEX 01 53:56:33
  TRACK 13 AUDIO
    TITLE "Jihad (Sci-Fi Industries Remix)"
    PERFORMER "Mikroben Krieg"
    FLAGS DCP
    INDEX 00 57:10:01
    INDEX 01 57:12:01
  TRACK 14 AUDIO
    TITLE "Sleepwalkers (Waste Disposal Machine Remix)"
    PERFORMER "Mikroben Krieg"
    FLAGS DCP
    INDEX 00 62:41:73
    INDEX 01 62:43:73
  TRACK 15 AUDIO
    TITLE "Nightmare Dance (Structura Remix)"
    PERFORMER "Mikroben Krieg"
    FLAGS DCP
    INDEX 00 68:21:73
    INDEX 01 68:23:73
  TRACK 16 AUDIO
    TITLE "Inquietude (Mimetic Remix)"
    PERFORMER "Mikroben Krieg"
    FLAGS DCP
    INDEX 00 73:01:40
    INDEX 01 73:03:40
Код:
[url=https://fastpic.ru/view/17/2011/0307/d4790d62c02daa368a10c6269867b522.jpg.html][img]http://i17.fastpic.ru/thumb/2011/0307/22/d4790d62c02daa368a10c6269867b522.jpeg[/img][/url][url=https://fastpic.ru/view/17/2011/0307/ce8c1ef9d637a00607b8062c95317911.jpg.html][img]http://i17.fastpic.ru/thumb/2011/0307/11/ce8c1ef9d637a00607b8062c95317911.jpeg[/img][/url][url=https://fastpic.ru/view/17/2011/0307/562d43b3da56b1117c4b127b476ed3f7.jpg.html][img]http://i17.fastpic.ru/thumb/2011/0307/f7/562d43b3da56b1117c4b127b476ed3f7.jpeg[/img][/url][url=https://fastpic.ru/view/17/2011/0307/6c5a5f533dd6879bec9b00f0badfa022.jpg.html][img]http://i17.fastpic.ru/thumb/2011/0307/22/6c5a5f533dd6879bec9b00f0badfa022.jpeg[/img][/url]
Выражаю благодарность kergarn`у за HQ scans!
Правила, инструкции, FAQ!!!
Торрент  Добавлен [26 июн 2020, 20:59] Скачать торрент Магнет ссылка
Скачать торрент
[ Размер 11.4 КБ / Просмотров 6 ]

Статус
Проверен 
 
Размер  527.92 МБ
Приватный: Нет (DHT включён)
.torrent скачан  0
 


     Отправить личное сообщение
   
Страница 1 из 1
Показать сообщения за:  Поле сортировки  
Начать новую тему Ответить на тему


Сейчас этот форум просматривают: нет зарегистрированных пользователей и гости: 0


Вы не можете начинать темы
Вы не можете отвечать на сообщения
Вы не можете редактировать свои сообщения
Вы не можете удалять свои сообщения
Вы не можете добавлять вложения

Перейти:  
cron