Начать новую тему Ответить на тему
Статистика раздачи
Размер: 410.12 МБ | Добавлен: 26 июн 2020, 17:24 | Скачали: 0
Сидеров: 0  [0 байт/сек]    Личеров: 0  [0 байт/сек]
Пред. тема | След. тема 

Автор
Сообщение

СообщениеДобавлено: 26 июн 2020, 17:24 

Ответить с цитатой 

Y Front / Patchwork Of A Happier Place
Жанр: Electro, Industrial, EBM
Страна-производитель диска: France
Год издания диска: 1997
Издатель (лейбл): Boucherie Productions, Abathrash
Номер по каталогу: BP5401
Страна: France
Аудио кодек: FLAC (*.flac)
Тип рипа: tracks
Битрейт аудио: lossless
Продолжительность: 61:46
Источник (релизер): What.CD
Наличие сканов в содержимом раздачи: нет
Треклист:
01. Zoe's thrill
02. Where the wails dance all night
03. Dancing upside down
04. S.H. vs doc
05. The room
06. Soundless words
07. Heroes
08. C.H.I.L.D
09. Enjoy the silence
10. The eel
11. Super manipulator
12. Parasite
13. Bitch boy
14. T.V. man
Внимание! Все выложенные здесь материалы предоставлены исключительно в целях ознакомления! После ознакомления с материалами Вы обязаны их удалить! Если Вы хотите пользоваться данным материалом в дальнейшем – Вы должны приобрести лицензионный диск.
Лучшая ваша благодарность за раздачу - отзывы об альбоме!
myspace
Код:
Exact Audio Copy V0.99 prebeta 5 from 4. May 2009
EAC extraction logfile from 21. September 2010, 10:08
Y Front / Patchwork of a happier place
Used drive  : PIONEER DVD-RW  DVR-109   Adapter: 6  ID: 0
Read mode               : Secure
Utilize accurate stream : Yes
Defeat audio cache      : Yes
Make use of C2 pointers : No
Read offset correction                      : 48
Overread into Lead-In and Lead-Out          : No
Fill up missing offset samples with silence : Yes
Delete leading and trailing silent blocks   : No
Null samples used in CRC calculations       : Yes
Used interface                              : Installed external ASPI interface
Gap handling                                : Appended to previous track
Used output format              : User Defined Encoder
Selected bitrate                : 320 kBit/s
Quality                         : High
Add ID3 tag                     : No
Command line compressor         : E:\Program Files\FLAC\flac.exe
Additional command line options : -V -8 -T "artist=%a" -T "title=%t" -T "album=%g" -T "date=%y" -T "tracknumber=%n" -T "genre=%m" %s
TOC of the extracted CD
     Track |   Start  |  Length  | Start sector | End sector
    ---------------------------------------------------------
        1  |  0:00.00 |  4:34.67 |         0    |    20616
        2  |  4:34.67 |  4:39.23 |     20617    |    41564
        3  |  9:14.15 |  4:42.52 |     41565    |    62766
        4  | 13:56.67 |  4:18.38 |     62767    |    82154
        5  | 18:15.30 |  6:03.50 |     82155    |   109429
        6  | 24:19.05 |  4:29.50 |    109430    |   129654
        7  | 28:48.55 |  4:10.32 |    129655    |   148436
        8  | 32:59.12 |  4:08.18 |    148437    |   167054
        9  | 37:07.30 |  4:13.25 |    167055    |   186054
       10  | 41:20.55 |  5:10.45 |    186055    |   209349
       11  | 46:31.25 |  4:07.60 |    209350    |   227934
       12  | 50:39.10 |  4:34.00 |    227935    |   248484
       13  | 55:13.10 |  2:10.07 |    248485    |   258241
       14  | 57:23.17 |  4:23.13 |    258242    |   277979
Track  1
     Filename 01. Y Front - Zoe's thrill.wav
     Pre-gap length  0:00:02.00
     Peak level 98.0 %
     Track quality 100.0 %
     Test CRC 65759E22
     Copy CRC 65759E22
     Track not present in AccurateRip database
     Copy OK
Track  2
     Filename 02. Y Front - Where the wails dance all night.wav
     Peak level 98.0 %
     Track quality 100.0 %
     Test CRC 7A7B1F4D
     Copy CRC 7A7B1F4D
     Track not present in AccurateRip database
     Copy OK
Track  3
     Filename 03. Y Front - Dancing upside down.wav
     Peak level 91.6 %
     Track quality 100.0 %
     Test CRC FFEE254B
     Copy CRC FFEE254B
     Track not present in AccurateRip database
     Copy OK
Track  4
     Filename 04. Y Front - S.H. vs doc.wav
     Peak level 95.0 %
     Track quality 100.0 %
     Test CRC C4B263DA
     Copy CRC C4B263DA
     Track not present in AccurateRip database
     Copy OK
Track  5
     Filename 05. Y Front - The room.wav
     Peak level 88.4 %
     Track quality 100.0 %
     Test CRC F2A04994
     Copy CRC F2A04994
     Track not present in AccurateRip database
     Copy OK
Track  6
     Filename 06. Y Front - Soundless words.wav
     Pre-gap length  0:00:01.66
     Peak level 98.0 %
     Track quality 100.0 %
     Test CRC 9F7693E1
     Copy CRC 9F7693E1
     Track not present in AccurateRip database
     Copy OK
Track  7
     Filename 07. Y Front - Heroes.wav
     Peak level 98.0 %
     Track quality 100.0 %
     Test CRC 210B839E
     Copy CRC 210B839E
     Track not present in AccurateRip database
     Copy OK
Track  8
     Filename 08. Y Front - C.H.I.L.D..wav
     Pre-gap length  0:00:01.09
     Peak level 81.7 %
     Track quality 100.0 %
     Test CRC 9D9779BA
     Copy CRC 9D9779BA
     Track not present in AccurateRip database
     Copy OK
Track  9
     Filename 09. Y Front - Enjoy the silence.wav
     Peak level 95.1 %
     Track quality 99.9 %
     Test CRC AEB7C88B
     Copy CRC AEB7C88B
     Track not present in AccurateRip database
     Copy OK
Track 10
     Filename 10. Y Front - The eel.wav
     Pre-gap length  0:00:00.60
     Peak level 96.8 %
     Track quality 100.0 %
     Test CRC F271F21B
     Copy CRC F271F21B
     Track not present in AccurateRip database
     Copy OK
Track 11
     Filename 11. Y Front - Super manipulator.wav
     Peak level 96.8 %
     Track quality 100.0 %
     Test CRC 5829003A
     Copy CRC 5829003A
     Track not present in AccurateRip database
     Copy OK
Track 12
     Filename 12. Y Front - Parasite.wav
     Peak level 69.5 %
     Track quality 100.0 %
     Test CRC E37E2FF4
     Copy CRC E37E2FF4
     Track not present in AccurateRip database
     Copy OK
Track 13
     Filename 13. Y Front - Bitch boy.wav
     Peak level 90.5 %
     Track quality 100.0 %
     Test CRC 1851F96B
     Copy CRC 1851F96B
     Track not present in AccurateRip database
     Copy OK
Track 14
     Filename 14. Y Front - T.V. man.wav
     Peak level 98.0 %
     Track quality 100.0 %
     Test CRC 1A9AEE7A
     Copy CRC 1A9AEE7A
     Track not present in AccurateRip database
     Copy OK
None of the tracks are present in the AccurateRip database
No errors occurred
End of status report



- Syd Ogy (vocals)
- D. (guitar)
- Jackass (Drums/keyboard)
- RV (drums)
- Zef aka The eel aka viDeo jOkeR aka WooDy AlieN (bass/keyboard)
Правила, инструкции, FAQ!!!
Торрент  Добавлен [26 июн 2020, 17:24] Скачать торрент Магнет ссылка
Скачать торрент
[ Размер 17.58 КБ / Просмотров 6 ]

Статус
Проверен 
 
Размер  410.12 МБ
Приватный: Нет (DHT включён)
.torrent скачан  0
 


     Отправить личное сообщение
   
Страница 1 из 1
Показать сообщения за:  Поле сортировки  
Начать новую тему Ответить на тему


Сейчас этот форум просматривают: нет зарегистрированных пользователей и гости: 0


Вы не можете начинать темы
Вы не можете отвечать на сообщения
Вы не можете редактировать свои сообщения
Вы не можете удалять свои сообщения
Вы не можете добавлять вложения

Перейти:  
cron