Начать новую тему Ответить на тему
Статистика раздачи
Размер: 342.08 МБ | Добавлен: 26 июн 2020, 20:26 | Скачали: 0
Сидеров: 0  [0 байт/сек]    Личеров: 0  [0 байт/сек]
Пред. тема | След. тема 

Автор
Сообщение

СообщениеДобавлено: 26 июн 2020, 20:26 

Ответить с цитатой 

Out Out - Voiceprint
Жанр: Electro, Industrial, EBM, Experimental
Страна-производитель диска: USA
Год издания диска: 1997
Издатель (лейбл): Metropolis
Номер по каталогу: MET 060
Страна: USA
Аудио кодек: FLAC (*.flac)
Тип рипа: tracks+.cue
Битрейт аудио: lossless
Продолжительность: 49:29
Источник (релизер): What.CD
Наличие сканов в содержимом раздачи: нет
Доп. информация: http://www.radio-valkyrie.com/outoutframeset.htm, http://www.myspace.com/outout
Треклист:
1 Fourth 4:38
2 The Attic 5:28
3 (+Codec Star Network) Blanc Says 4:33
4 (+In Phase) Rot 3:38
5 Tear Me Down 4:25
6 Radio Valkyrie Two 5:04
7 (+Rancho Santa Fe) Null 4:58
8 Untitled 2:51
9 Forty Versions 3:51
10 Futile 3:42
11 (+Futility) 2:30
Внимание! Все выложенные здесь материалы предоставлены исключительно в целях ознакомления! После ознакомления с материалами Вы обязаны их удалить! Если Вы хотите пользоваться данным материалом в дальнейшем – Вы должны приобрести лицензионный диск.
Лучшая ваша благодарность за раздачу - отзывы об альбоме!
Код:
Exact Audio Copy V0.99 prebeta 4 from 23. January 2008
EAC extraction logfile from 15. September 2010, 0:28
Out Out / Voiceprint
Used drive  : TSSTcorpCD/DVDW SH-W162Z   Adapter: 2  ID: 1
Read mode               : Secure
Utilize accurate stream : Yes
Defeat audio cache      : Yes
Make use of C2 pointers : No
Read offset correction                      : 6
Overread into Lead-In and Lead-Out          : No
Fill up missing offset samples with silence : Yes
Delete leading and trailing silent blocks   : No
Null samples used in CRC calculations       : Yes
Used interface                              : Native Win32 interface for Win NT & 2000
Gap handling                                : Appended to previous track
Used output format              : User Defined Encoder
Selected bitrate                : 128 kBit/s
Quality                         : High
Add ID3 tag                     : No
Command line compressor         : C:\Program Files\Exact Audio Copy\Flac\flac.exe
Additional command line options : -V -8 -T "artist=%a" -T "title=%t" -T "album=%g" -T "date=%y" -T "tracknumber=%n" -T "genre=%m" %s
TOC of the extracted CD
     Track |   Start  |  Length  | Start sector | End sector
    ---------------------------------------------------------
        1  |  0:00.00 |  4:37.22 |         0    |    20796
        2  |  4:37.22 |  5:28.05 |     20797    |    45401
        3  | 10:05.27 |  6:13.18 |     45402    |    73394
        4  | 16:18.45 |  3:38.37 |     73395    |    89781
        5  | 19:57.07 |  4:25.38 |     89782    |   109694
        6  | 24:22.45 |  6:58.15 |    109695    |   141059
        7  | 31:20.60 |  4:58.12 |    141060    |   163421
        8  | 36:18.72 |  2:51.13 |    163422    |   176259
        9  | 39:10.10 |  3:51.42 |    176260    |   193626
       10  | 43:01.52 |  6:12.48 |    193627    |   221574
       11  | 49:14.25 |  0:14.62 |    221575    |   222686
Track  1
     Filename C:\Temp EAC\out out - voiceprint (1997) - flac\Out Out - Voiceprint - 01 - Fourth.wav
     Pre-gap length  0:00:02.00
     Peak level 100.0 %
     Track quality 99.9 %
     Test CRC AA804884
     Copy CRC AA804884
     Accurately ripped (confidence 9)  [B445C388]
     Copy OK
Track  2
     Filename C:\Temp EAC\out out - voiceprint (1997) - flac\Out Out - Voiceprint - 02 - The Attic.wav
     Pre-gap length  0:00:03.53
     Peak level 100.0 %
     Track quality 99.9 %
     Test CRC 1F10F569
     Copy CRC 1F10F569
     Accurately ripped (confidence 9)  [451784EE]
     Copy OK
Track  3
     Filename C:\Temp EAC\out out - voiceprint (1997) - flac\Out Out - Voiceprint - 03 - (+Codec Star Network) Blanc Says.wav
     Pre-gap length  0:01:17.20
     Peak level 100.0 %
     Track quality 99.9 %
     Test CRC 0156B1C2
     Copy CRC 0156B1C2
     Accurately ripped (confidence 9)  [FF858013]
     Copy OK
Track  4
     Filename C:\Temp EAC\out out - voiceprint (1997) - flac\Out Out - Voiceprint - 04 - (+In Phase) Rot.wav
     Pre-gap length  0:01:39.46
     Peak level 100.0 %
     Track quality 99.9 %
     Test CRC 9DB9991F
     Copy CRC 9DB9991F
     Accurately ripped (confidence 9)  [5A6CA356]
     Copy OK
Track  5
     Filename C:\Temp EAC\out out - voiceprint (1997) - flac\Out Out - Voiceprint - 05 - Tear Me Down.wav
     Peak level 100.0 %
     Track quality 100.0 %
     Test CRC 62DF32BA
     Copy CRC 62DF32BA
     Accurately ripped (confidence 9)  [10884264]
     Copy OK
Track  6
     Filename C:\Temp EAC\out out - voiceprint (1997) - flac\Out Out - Voiceprint - 06 - Radio Valkyrie Two.wav
     Peak level 100.0 %
     Track quality 100.0 %
     Test CRC 78D724E8
     Copy CRC 78D724E8
     Accurately ripped (confidence 9)  [D4A5C19E]
     Copy OK
Track  7
     Filename C:\Temp EAC\out out - voiceprint (1997) - flac\Out Out - Voiceprint - 07 - (+Rancho Santa Fe) Null.wav
     Pre-gap length  0:01:53.73
     Peak level 100.0 %
     Track quality 100.0 %
     Test CRC 5513D667
     Copy CRC 5513D667
     Accurately ripped (confidence 9)  [09FF8E51]
     Copy OK
Track  8
     Filename C:\Temp EAC\out out - voiceprint (1997) - flac\Out Out - Voiceprint - 08 - Untitled.wav
     Pre-gap length  0:00:00.56
     Peak level 100.0 %
     Track quality 100.0 %
     Test CRC ECE4F565
     Copy CRC ECE4F565
     Accurately ripped (confidence 9)  [D7D7204E]
     Copy OK
Track  9
     Filename C:\Temp EAC\out out - voiceprint (1997) - flac\Out Out - Voiceprint - 09 - Forty Versions.wav
     Peak level 100.0 %
     Track quality 100.0 %
     Test CRC A5E53D3B
     Copy CRC A5E53D3B
     Accurately ripped (confidence 9)  [E11F568B]
     Copy OK
Track 10
     Filename C:\Temp EAC\out out - voiceprint (1997) - flac\Out Out - Voiceprint - 10 - Futile.wav
     Peak level 100.0 %
     Track quality 100.0 %
     Test CRC E1700661
     Copy CRC E1700661
     Accurately ripped (confidence 9)  [803A2665]
     Copy OK
Track 11
     Filename C:\Temp EAC\out out - voiceprint (1997) - flac\Out Out - Voiceprint - 11 - (+Futility).wav
     Pre-gap length  0:02:30.30
     Peak level 9.2 %
     Track quality 100.0 %
     Test CRC 0ADABB22
     Copy CRC 0ADABB22
     Accurately ripped (confidence 9)  [05E23825]
     Copy OK
All tracks accurately ripped
No errors occurred
End of status report
Код:
REM DATE 1997
REM DISCID A70B990B
REM COMMENT "ExactAudioCopy v0.99pb4"
FILE "Out Out - Voiceprint - 01 - Fourth.wav" WAVE
  TRACK 01 AUDIO
    INDEX 01 00:00:00
  TRACK 02 AUDIO
    INDEX 00 04:33:57
FILE "Out Out - Voiceprint - 02 - The Attic.wav" WAVE
    INDEX 01 00:00:00
  TRACK 03 AUDIO
    INDEX 00 04:10:65
FILE "Out Out - Voiceprint - 03 - (+Codec Star Network) Blanc Says.wav" WAVE
    INDEX 01 00:00:00
  TRACK 04 AUDIO
    INDEX 00 04:33:58
FILE "Out Out - Voiceprint - 04 - (+In Phase) Rot.wav" WAVE
    INDEX 01 00:00:00
FILE "Out Out - Voiceprint - 05 - Tear Me Down.wav" WAVE
  TRACK 05 AUDIO
    INDEX 01 00:00:00
FILE "Out Out - Voiceprint - 06 - Radio Valkyrie Two.wav" WAVE
  TRACK 06 AUDIO
    INDEX 01 00:00:00
  TRACK 07 AUDIO
    INDEX 00 05:04:35
FILE "Out Out - Voiceprint - 07 - (+Rancho Santa Fe) Null.wav" WAVE
    INDEX 01 00:00:00
  TRACK 08 AUDIO
    INDEX 00 04:57:45
FILE "Out Out - Voiceprint - 08 - Untitled.wav" WAVE
    INDEX 01 00:00:00
FILE "Out Out - Voiceprint - 09 - Forty Versions.wav" WAVE
  TRACK 09 AUDIO
    INDEX 01 00:00:00
FILE "Out Out - Voiceprint - 10 - Futile.wav" WAVE
  TRACK 10 AUDIO
    INDEX 01 00:00:00
  TRACK 11 AUDIO
    INDEX 00 03:42:25
FILE "Out Out - Voiceprint - 11 - (+Futility).wav" WAVE
    INDEX 01 00:00:00



Out Out was formed by Mark Alan Miller from years of ongoing experimentation with songwriting, synth programming, and a general fascination with all things sound and recording. Early works were often pieces written more for the exercise of recording than for the sake of the songs themselves (and a lot of it sounds that way.)
At some point, likely in 1988, through collaborations with Pater Dysparia (Peter DiNardi) Taylor 808 (Taylor DeuPree) and others, a newfound confidence in the songwriting side was attained. With that revelation, the need for a 'band' name arose. Out Out was eventually chosen.
Demos were recorded, and early ones that went out to the obvious places like Wax Trax! and Play It Again Sam, included early versions of D.W.I. and Admire The Question. (Mark: "It is still my belief to this day that someone over at Wax Trax! gave that demo to My Life With The Thrill Kill Kult or KMFDM - the bassline on the Naive remix that TKK did for KMFDM is pretty, well, obvious. Who knows?")
Through a connection with Taylor 808, an early version of Pepperbox Muzzle was released with Jason Szostek on Turn Of The Century Records. A cassette-only release, and recorded and mixed at the home studio called Radio Valkyrie...
Jason and Taylor knew of a slightly bigger label that was just getting going, and as it was co-owned by Skip McDonald of Tackhead (likely an Out Out influence anyway) calls were made, meetings set up, and Out Out and Axis Records started a relationship that yielded the partial re-recording of Pepperbox Muzzle with Skip and Mark co-producing. Some of the original home recordings we deemed finished and of high enough quality to make it on to the Axis CD release, including Ingrates, Admire The Question, Resurrection and Protoplasm. D.W.I. and Antidote were recorded by Skip, Mark, and Paul Harding at the legendary Southern Studios in London. Many On-U Sound recordings, Ministry's Twitch and Revolting Cocks' Big Sexy Land, as well as a zillion punk classics were tracked there. The place had a vibe, and it affected Mark in a profound way. (Mark: "To work in that studio where all of those amazing recordings were made was beyond inspiring.")
Initial reviews from Billboard, B-Side, Alternative press and others were favorable, but immediately after the release of Pepperbox, Axis' US distributor Rough Trade closed it's doors, making all releases temporarily unavailable.
Cargo Records stepped in and picked up Axis' distribution a short while later. Finched was recorded and released the year after, and in the meantime Mark and Peter continued work on Peter's project Vein Cage, which Axis also released - the CD Feral Din. Also, Mark's engineering was taking off, recording local bands, one of which was New Radiant Storm King, who Axis picked up for a little while, most notably releasing My Little Bastard Soul.
Sadly, good things must come to an end, and for various reasons, Axis and Out Out parted ways, with Axis scaling down their operations to a bare minimum.
Writing was already underway for Nisus, but as there was no deadline for completion, no label to release it, there was plenty of time to try different things. Mark focused heavily on shifting his career (the part that pays the rent) to being an engineer and producer full-time, eventually buying into one of the studios he worked at, and buying some equipment from another that employed him until they closed their doors.
All the while a slow, steady effort was made to get Out Out picked up by another label. Demos went out, labels such as Zoth Ummog and Cleopatra conversed, and a decision, a very tough decision, had to be made between two final choices, 21st Circuitry and Metropolis. At the time, they were of similar size and stature, and both Don from 21stC and Dave from Metropolis made Mark feel welcomed and comfortable. It is no longer remembered why Mark picked Metropolis in the end, but he did make it a point to release tracks with Don on 21stC whenever possible.
Metropolis almost immediately released Nisus, followed by remastered reissues of Pepperbox Muzzle and Finched. Voiceprint was written recorded and released shortly thereafter, fulfilling the agreement between Metropolis and Out Out.
During the making of Voiceprint, Out Out was also called upon to consult on a Simpsons promotional theme song remix, did a soundtrack for a video game (that sadly was shelved) and dabbled in other kinds of electronica, like drum 'n' bass and techno. Over the years from then to now, those latter experiments added up to a possible new Out Out record, provisionally entitled The Acid Pirates Present Virtual Sound Images. (Mark: "It may very well see release if the upcoming Out Out collection does well enough.")
Over the course of those first four albums, Mark saved unreleased remixes up for a possible remix album, and in 2002, the idea was born to combine those remixes with a 'best-of' disc of sorts, where four songs from each record would be given a fresh mix (or in the case of some of the early Pepperbox material where the multi-track masters weren't available, reedited from stereo mixes) to insure a 2CD release of wholly new versions (Mark: "so people who have some or all of the older records won't be asked to repurchase something they already own, but instead get a proper value and some fresh perspectives...")
That takes us to the present. Out Out, while only now reemerging from a hiatus that started in 1999, was not dead, but merely resting, to paraphrase the Python.
Mark Alan Miller
Правила, инструкции, FAQ!!!
Торрент  Добавлен [26 июн 2020, 20:26] Скачать торрент Магнет ссылка
Скачать торрент
[ Размер 14.78 КБ / Просмотров 7 ]

Статус
Проверен 
 
Размер  342.08 МБ
Приватный: Нет (DHT включён)
.torrent скачан  0
 


     Отправить личное сообщение
   
Страница 1 из 1
Показать сообщения за:  Поле сортировки  
Начать новую тему Ответить на тему


Сейчас этот форум просматривают: нет зарегистрированных пользователей и гости: 0


Вы не можете начинать темы
Вы не можете отвечать на сообщения
Вы не можете редактировать свои сообщения
Вы не можете удалять свои сообщения
Вы не можете добавлять вложения

Перейти:  
cron