Начать новую тему Ответить на тему
Статистика раздачи
Размер: 365.19 МБ | Добавлен: 26 июн 2020, 20:34 | Скачали: 0
Сидеров: 0  [0 байт/сек]    Личеров: 0  [0 байт/сек]
Пред. тема | След. тема 

Автор
Сообщение

СообщениеДобавлено: 26 июн 2020, 20:34 

Ответить с цитатой 

Altera Forma and Alina Vituhnovskaya
Жанр: Electro, Industrial, EBM
Год выпуска диска: 2004
Производитель диска: Россия
Аудио кодек: APE
Тип рипа: image+.cue
Битрейт аудио: lossless
Продолжительность: 40:47
Трэклист:
01. Activia (Intro) / Активия 2:24
02. Freidism / Фрейдизм 4:03
03. Two Steps To The Madness / Два Шага До Безумия 4:56
04. Adorations / Поклонения 5:04
05. Ultramarine / Ультрамарин 5:27
06. Where Are Your Little Adolfy? / Где Твой Маленький Адольфик? 4:32
07. Letost Star Moih Unila / Летость Стар Моих Уныла 4:26
08. Wintergardens / Зимние Сады 5:15
09. The Star / Звезда 4:39
Код:
Exact Audio Copy V0.99 prebeta 5 from 4. May 2009
Отчёт EAC об извлечении, выполненном 18. января 2010, 10:23
Altera Forma & Alina Vituhnovskaya / Altera Forma
Дисковод: ASUS    DRW-1814BL   Adapter: 1  ID: 0
Режим чтения                 : Достоверность
Использование точного потока : Да
Отключение кэша аудио        : Да
Использование указателей C2  : Нет
Коррекция смещения при чтении                     : 6
Способность читать области Lead-in и Lead-out     : Нет
Заполнение пропущенных сэмплов тишиной            : Да
Удаление блоков с тишиной в начале и конце        : Нет
При вычислениях CRC использовались нулевые сэмплы : Да
Интерфейс                                         : Установленный внешний ASPI-интерфейс
Выходной формат : Внутренние WAV-операции
Формат сэмплов  : 44.100 Гц; 16 бит; стерео
TOC извлечённого CD
     Трек |   Старт  | Длительность | Начальный сектор | Конечный сектор
    ---------------------------------------------------------------------
       1  |  0:00.00 |    2:23.45   |           0      |      10769
       2  |  2:23.45 |    4:02.66   |       10770      |      28985
       3  |  6:26.36 |    4:56.00   |       28986      |      51185
       4  | 11:22.36 |    5:04.02   |       51186      |      73987
       5  | 16:26.38 |    5:27.19   |       73988      |      98531
       6  | 21:53.57 |    4:32.01   |       98532      |     118932
       7  | 26:25.58 |    4:26.36   |      118933      |     138918
       8  | 30:52.19 |    5:15.32   |      138919      |     162575
       9  | 36:07.51 |    4:39.28   |      162576      |     183528
Характеристики диапазона извлечения и сообщения об ошибках
Выбранный диапазон
     Имя файла E:\! РАЗДАЧИ\Altera Forma & Alina Vituhnovskaya - Altera Forma\Altera Forma & Alina Vituhnovskaya - Altera Forma.wav
     Пиковый уровень 100.0 %
     Качество диапазона 100.0 %
     CRC теста 216A6455
     CRC копии 216A6455
     Копирование... OK
Ошибок не произошло
AccurateRip: сводка
Трек  1  нет в базе данных
Трек  2  нет в базе данных
Трек  3  нет в базе данных
Трек  4  нет в базе данных
Трек  5  нет в базе данных
Трек  6  нет в базе данных
Трек  7  нет в базе данных
Трек  8  нет в базе данных
Трек  9  нет в базе данных
Ни одного трека нет в базе AccurateRip
Конец отчёта
Доп. информация: (c) Altera Forma
(p) Концерн "Группа СОЮЗ"
323985
сканы 300dpi приложены
Правила, инструкции, FAQ!!!
Торрент  Добавлен [26 июн 2020, 20:34] Скачать торрент Магнет ссылка
Скачать торрент
[ Размер 29.93 КБ / Просмотров 11 ]

Статус
Проверен 
 
Размер  365.19 МБ
Приватный: Нет (DHT включён)
.torrent скачан  0
 


     Отправить личное сообщение
   
Страница 1 из 1
Показать сообщения за:  Поле сортировки  
Начать новую тему Ответить на тему


Сейчас этот форум просматривают: нет зарегистрированных пользователей и гости: 0


Вы не можете начинать темы
Вы не можете отвечать на сообщения
Вы не можете редактировать свои сообщения
Вы не можете удалять свои сообщения
Вы не можете добавлять вложения

Перейти:  
cron