Начать новую тему Ответить на тему
Статистика раздачи
Размер: 487.53 МБ | Добавлен: 26 июн 2020, 17:04 | Скачали: 0
Сидеров: 0  [0 байт/сек]    Личеров: 0  [0 байт/сек]
Пред. тема | След. тема 

Автор
Сообщение

СообщениеДобавлено: 26 июн 2020, 17:04 

Ответить с цитатой 

Derma-Tek / Corpus Technological
Жанр: Electro, Industrial
Страна-производитель диска: Germany
Год издания диска: 2007
Издатель (лейбл): NoiTekk
Номер по каталогу: NTK027
Страна: US
Аудио кодек: FLAC (*.flac)
Тип рипа: tracks+.cue
Битрейт аудио: lossless
Продолжительность: 63:14
Источник (релизер): CD-R
Наличие сканов в содержимом раздачи: нет
Треклист:
1 Living Through Death 1:04
2 Corpus Technological 5:49
3 T.W.E.P 5:50
4 Payback 5:22
5 Rise From The Ashes 5:49
6 Mauled 5:19
7 Out Of This Hell 6:20
8 Less Important 5:52
9 Existential 6:12
10 Lost Cause 5:47
11 Mauled (Remix By E.S.R) 5:26
12 Less Important (Remix By Dawn Of Ashes)
Код:
Exact Audio Copy V0.99 prebeta 5 from 4. May 2009
EAC extraction logfile from 20. December 2010, 20:34
Derma-Tek / Corpus Technological
Used drive  : PIONEER DVD-RW  DVR-216D   Adapter: 0  ID: 0
Read mode               : Secure
Utilize accurate stream : Yes
Defeat audio cache      : Yes
Make use of C2 pointers : No
Read offset correction                      : 96
Overread into Lead-In and Lead-Out          : No
Fill up missing offset samples with silence : Yes
Delete leading and trailing silent blocks   : No
Null samples used in CRC calculations       : Yes
Used interface                              : Native Win32 interface for Win NT & 2000
Gap handling                                : Appended to previous track
Used output format              : User Defined Encoder
Selected bitrate                : 1024 kBit/s
Quality                         : High
Add ID3 tag                     : No
Command line compressor         : C:\Program Files (x86)\Exact Audio Copy\Flac\flac.exe
Additional command line options : -8 -V -T "ARTIST=%a" -T "TITLE=%t" -T "ALBUM=%g" -T "DATE=%y" -T "TRACKNUMBER=%n" -T "GENRE=%m" -T "COMMENT=EAC FLAC -8" %s
TOC of the extracted CD
     Track |   Start  |  Length  | Start sector | End sector
    ---------------------------------------------------------
        1  |  0:00.00 |  1:05.23 |         0    |     4897
        2  |  1:05.23 |  5:49.59 |      4898    |    31131
        3  |  6:55.07 |  5:50.51 |     31132    |    57432
        4  | 12:45.58 |  5:22.21 |     57433    |    81603
        5  | 18:08.04 |  5:50.00 |     81604    |   107853
        6  | 23:58.04 |  5:19.61 |    107854    |   131839
        7  | 29:17.65 |  6:21.19 |    131840    |   160433
        8  | 35:39.09 |  5:52.56 |    160434    |   186889
        9  | 41:31.65 |  6:13.11 |    186890    |   214875
       10  | 47:45.01 |  5:50.24 |    214876    |   241149
       11  | 53:35.25 |  5:26.52 |    241150    |   265651
       12  | 59:02.02 |  4:12.08 |    265652    |   284559
Track  1
     Filename I:\Audio\TORRENTS\Derma-Tek - Corpus Technological\tracks\ 01. Derma-Tek – Living Trough Death.wav
     Pre-gap length  0:00:02.00
     Peak level 99.3 %
     Track quality 100.0 %
     Test CRC 2C8D19A7
     Copy CRC 2C8D19A7
     Track not present in AccurateRip database
     Copy OK
Track  2
     Filename I:\Audio\TORRENTS\Derma-Tek - Corpus Technological\tracks\ 02. Derma-Tek – Corpus Technological.wav
     Peak level 99.9 %
     Track quality 100.0 %
     Test CRC D22A6B92
     Copy CRC D22A6B92
     Track not present in AccurateRip database
     Copy OK
Track  3
     Filename I:\Audio\TORRENTS\Derma-Tek - Corpus Technological\tracks\ 03. Derma-Tek – T.W.E.P.wav
     Peak level 99.9 %
     Track quality 100.0 %
     Test CRC 7ED6C2BB
     Copy CRC 7ED6C2BB
     Track not present in AccurateRip database
     Copy OK
Track  4
     Filename I:\Audio\TORRENTS\Derma-Tek - Corpus Technological\tracks\ 04. Derma-Tek – Payback.wav
     Peak level 99.9 %
     Track quality 100.0 %
     Test CRC 07A14D6F
     Copy CRC 07A14D6F
     Track not present in AccurateRip database
     Copy OK
Track  5
     Filename I:\Audio\TORRENTS\Derma-Tek - Corpus Technological\tracks\ 05. Derma-Tek – Rise From The Ashes.wav
     Peak level 99.9 %
     Track quality 99.9 %
     Test CRC 57154E33
     Copy CRC 57154E33
     Track not present in AccurateRip database
     Copy OK
Track  6
     Filename I:\Audio\TORRENTS\Derma-Tek - Corpus Technological\tracks\ 06. Derma-Tek – Mauled.wav
     Peak level 99.9 %
     Track quality 100.0 %
     Test CRC 6C25FEA0
     Copy CRC 6C25FEA0
     Track not present in AccurateRip database
     Copy OK
Track  7
     Filename I:\Audio\TORRENTS\Derma-Tek - Corpus Technological\tracks\ 07. Derma-Tek – Out Of This Hell.wav
     Peak level 99.9 %
     Track quality 100.0 %
     Test CRC 317959CC
     Copy CRC 317959CC
     Track not present in AccurateRip database
     Copy OK
Track  8
     Filename I:\Audio\TORRENTS\Derma-Tek - Corpus Technological\tracks\ 08. Derma-Tek – Less Important.wav
     Peak level 99.9 %
     Track quality 100.0 %
     Test CRC 1DF4E928
     Copy CRC 1DF4E928
     Track not present in AccurateRip database
     Copy OK
Track  9
     Filename I:\Audio\TORRENTS\Derma-Tek - Corpus Technological\tracks\ 09. Derma-Tek – Existential.wav
     Peak level 99.9 %
     Track quality 100.0 %
     Test CRC EE87E7E1
     Copy CRC EE87E7E1
     Track not present in AccurateRip database
     Copy OK
Track 10
     Filename I:\Audio\TORRENTS\Derma-Tek - Corpus Technological\tracks\ 10. Derma-Tek – Lost Cause.wav
     Peak level 99.9 %
     Track quality 99.9 %
     Test CRC 933D242E
     Copy CRC 933D242E
     Track not present in AccurateRip database
     Copy OK
Track 11
     Filename I:\Audio\TORRENTS\Derma-Tek - Corpus Technological\tracks\ 11. Derma-Tek – Mauled (Remix By E.S.R).wav
     Peak level 99.9 %
     Track quality 100.0 %
     Test CRC 467E2C99
     Copy CRC 467E2C99
     Track not present in AccurateRip database
     Copy OK
Track 12
     Filename I:\Audio\TORRENTS\Derma-Tek - Corpus Technological\tracks\ 12. Derma-Tek – Less Important (Remix By Dawn Of Ashes).wav
     Peak level 100.0 %
     Track quality 100.0 %
     Test CRC E26B09C0
     Copy CRC E26B09C0
     Track not present in AccurateRip database
     Copy OK
None of the tracks are present in the AccurateRip database
No errors occurred
End of status report
Код:
REM GENRE Industrial
REM DATE 2007
REM DISCID A60ED20C
REM COMMENT "ExactAudioCopy v0.99pb5"
PERFORMER "Derma-Tek"
TITLE "Corpus Technological"
FILE " 01. Derma-Tek – Living Trough Death.wav" WAVE
  TRACK 01 AUDIO
    TITLE "Living Trough Death"
    PERFORMER "Derma-Tek"
    INDEX 01 00:00:00
FILE " 02. Derma-Tek – Corpus Technological.wav" WAVE
  TRACK 02 AUDIO
    TITLE "Corpus Technological"
    PERFORMER "Derma-Tek"
    INDEX 01 00:00:00
FILE " 03. Derma-Tek – T.W.E.P.wav" WAVE
  TRACK 03 AUDIO
    TITLE "T.W.E.P"
    PERFORMER "Derma-Tek"
    INDEX 01 00:00:00
FILE " 04. Derma-Tek – Payback.wav" WAVE
  TRACK 04 AUDIO
    TITLE "Payback"
    PERFORMER "Derma-Tek"
    INDEX 01 00:00:00
FILE " 05. Derma-Tek – Rise From The Ashes.wav" WAVE
  TRACK 05 AUDIO
    TITLE "Rise From The Ashes"
    PERFORMER "Derma-Tek"
    INDEX 01 00:00:00
FILE " 06. Derma-Tek – Mauled.wav" WAVE
  TRACK 06 AUDIO
    TITLE "Mauled"
    PERFORMER "Derma-Tek"
    INDEX 01 00:00:00
FILE " 07. Derma-Tek – Out Of This Hell.wav" WAVE
  TRACK 07 AUDIO
    TITLE "Out Of This Hell"
    PERFORMER "Derma-Tek"
    INDEX 01 00:00:00
FILE " 08. Derma-Tek – Less Important.wav" WAVE
  TRACK 08 AUDIO
    TITLE "Less Important"
    PERFORMER "Derma-Tek"
    INDEX 01 00:00:00
FILE " 09. Derma-Tek – Existential.wav" WAVE
  TRACK 09 AUDIO
    TITLE "Existential"
    PERFORMER "Derma-Tek"
    INDEX 01 00:00:00
FILE " 10. Derma-Tek – Lost Cause.wav" WAVE
  TRACK 10 AUDIO
    TITLE "Lost Cause"
    PERFORMER "Derma-Tek"
    INDEX 01 00:00:00
FILE " 11. Derma-Tek – Mauled (Remix By E.S.R).wav" WAVE
  TRACK 11 AUDIO
    TITLE "Mauled (Remix By E.S.R)"
    PERFORMER "Derma-Tek"
    INDEX 01 00:00:00
FILE " 12. Derma-Tek – Less Important (Remix By Dawn Of Ashes).wav" WAVE
  TRACK 12 AUDIO
    TITLE "Less Important (Remix By Dawn Of Ashes)"
    PERFORMER "Derma-Tek"
    INDEX 01 00:00:00
Код:
Started at: понедельник, 20. 12. 2010. - 19:43.59
12 files found
01 -===- track 1 in drive PIONEER DVD-RW  DVR-216D
  Track ripped successfully
  Conclusion: this track is CDDA with probability 99%
  Tempfile successfully deleted.
02 -===- track 2 in drive PIONEER DVD-RW  DVR-216D
  Track ripped successfully
  Conclusion: this track is CDDA with probability 99%
  Tempfile successfully deleted.
03 -===- track 3 in drive PIONEER DVD-RW  DVR-216D
  Track ripped successfully
  Conclusion: this track is CDDA with probability 100%
  Tempfile successfully deleted.
04 -===- track 4 in drive PIONEER DVD-RW  DVR-216D
  Track ripped successfully
  Conclusion: this track is CDDA with probability 100%
  Tempfile successfully deleted.
05 -===- track 5 in drive PIONEER DVD-RW  DVR-216D
  Track ripped successfully
  Conclusion: this track is CDDA with probability 99%
  Tempfile successfully deleted.
06 -===- track 6 in drive PIONEER DVD-RW  DVR-216D
  Track ripped successfully
  Conclusion: this track is CDDA with probability 99%
  Tempfile successfully deleted.
07 -===- track 7 in drive PIONEER DVD-RW  DVR-216D
  Track ripped successfully
  Conclusion: this track is CDDA with probability 99%
  Tempfile successfully deleted.
08 -===- track 8 in drive PIONEER DVD-RW  DVR-216D
  Track ripped successfully
  Conclusion: this track is CDDA with probability 100%
  Tempfile successfully deleted.
09 -===- track 9 in drive PIONEER DVD-RW  DVR-216D
  Track ripped successfully
  Conclusion: this track is CDDA with probability 100%
  Tempfile successfully deleted.
10 -===- track 10 in drive PIONEER DVD-RW  DVR-216D
  Track ripped successfully
  Conclusion: this track is CDDA with probability 100%
  Tempfile successfully deleted.
11 -===- track 11 in drive PIONEER DVD-RW  DVR-216D
  Track ripped successfully
  Conclusion: this track is CDDA with probability 100%
  Tempfile successfully deleted.
12 -===- track 12 in drive PIONEER DVD-RW  DVR-216D
  Track ripped successfully
  Conclusion: this track is CDDA with probability 100%
  Tempfile successfully deleted.
Finished at: понедельник, 20. 12. 2010. - 19:56.43 (operation time: 0:12.43)


Доп. информация: http://www.discogs.com/Derma-Tek-Corpus-Technological/release/982911
http://www.derma-tek.com/
http://www.myspace.com/dermatek
Правила, инструкции, FAQ!!!
Торрент  Добавлен [26 июн 2020, 17:04] Скачать торрент Магнет ссылка
Скачать торрент
[ Размер 20.9 КБ / Просмотров 5 ]

Статус
Проверен 
 
Размер  487.53 МБ
Приватный: Нет (DHT включён)
.torrent скачан  0
 


     Отправить личное сообщение
   
Страница 1 из 1
Показать сообщения за:  Поле сортировки  
Начать новую тему Ответить на тему


Сейчас этот форум просматривают: нет зарегистрированных пользователей и гости: 1


Вы не можете начинать темы
Вы не можете отвечать на сообщения
Вы не можете редактировать свои сообщения
Вы не можете удалять свои сообщения
Вы не можете добавлять вложения

Перейти:  
cron