Начать новую тему Ответить на тему
Статистика раздачи
Размер: 820.35 МБ | Добавлен: 26 июн 2020, 17:45 | Скачали: 0
Сидеров: 0  [0 байт/сек]    Личеров: 0  [0 байт/сек]
Пред. тема | След. тема 

Автор
Сообщение

СообщениеДобавлено: 26 июн 2020, 17:45 

Ответить с цитатой 

Das Ich - Re Laborat / Re Animat (2CD)
Жанр: Electro, Industrial, Darkwave
Носитель: CD
Страна-производитель диска: Germany
Год издания: 1999
Издатель (лейбл): Danse Macabre
Номер по каталогу: EFA CD 11243
Страна: Germany
Аудиокодек: FLAC (*.flac)
Тип рипа: tracks+.cue
Битрейт аудио: lossless
Продолжительность: 01:04:57 + 00:52:08
Источник (релизер): What.CD
Наличие сканов в содержимом раздачи: нет
Треклист:
01 Der Schrei (Remixed By Laboratory X) 5:28
02 Das Ich Im Ich (Remixed By And One) 4:57
03 Unschuld Erde (Remixed By Funker Vogt) 6:26
04 Erde Ruft (Remixed By Kramm) 3:59
05 He Mensch (Remixed By Deine Lakaien) 5:08
06 Dem Ich Den Traum (Remixed By L'Ame Immortelle) 4:40
07 Gottes Tod (Remixed By Dance Or Die) 5:07
08 Aura (Remixed By Wumpscut) 4:16
09 Destillat (Remixed By VNV Nation) 6:06
10 Der Haß (Remixed By In Strict Confidence) 5:31
11 Schwanenschrei (Remixed By Silke Bischoff) 4:21
12 Des Satans Neue Kleider (Remixed By Atrocity) 4:32
13 Kain Und Abel (Remixed By Kalte Farben) 4:20
01 Kain Und Abel (Remixed By Girls Under Glass) 4:55
02 Die Propheten (Remixed By Catastrophe Ballet) 5:11
03 Kindgott (Remixed By The Fair Sex) 5:32
04 Von Der Armut (Remixed By The Eternal Afflict) 5:13
05 Erde Ruft (Remixed By Plastic Noise Experience) 4:20
06 Des Satans Neue Kleider (Remixed By Aghast View) 5:12
07 Gottes Tod (Remixed By Cat Rapes Dog) 4:27
08 Dein Leben (Remixed By Imminent Starvation) 3:16
09 Von Der Armut (Reverse Edit) 4:15
10 Der Schrei 5:18
11 Re_Animat 4:23
Код:
Exact Audio Copy V1.0 beta 3 from 29. August 2011
EAC extraction logfile from 29. January 2014, 19:21
Das Ich / Re_Laborat / Re_Animat
Used drive  : hp      DVD A  DH16ACSH   Adapter: 0  ID: 1
Read mode               : Secure
Utilize accurate stream : Yes
Defeat audio cache      : Yes
Make use of C2 pointers : No
Read offset correction                      : 6
Overread into Lead-In and Lead-Out          : No
Fill up missing offset samples with silence : Yes
Delete leading and trailing silent blocks   : No
Null samples used in CRC calculations       : Yes
Used interface                              : Native Win32 interface for Win NT & 2000
Gap handling                                : Appended to previous track
Used output format              : User Defined Encoder
Selected bitrate                : 1024 kBit/s
Quality                         : High
Add ID3 tag                     : No
Command line compressor         : C:\Program Files (x86)\flac-1.3.0-icl\flac.exe
Additional command line options : -8 -V -T "ARTIST=%artist%" -T "TITLE=%title%" -T "ALBUM=%albumtitle%" -T "DATE=%year%" -T "TRACKNUMBER=%tracknr%" -T "GENRE=%genre%" -T "PERFORMER=%albuminterpret%" -T "COMPOSER=%composer%" %haslyrics%--tag-from-file=LYRICS="%lyricsfile%"%haslyrics% -T "ALBUMARTIST=%albumartist%" -T "DISCNUMBER=%cdnumber%" -T "TOTALDISCS=%totalcds%" -T "TOTALTRACKS=%numtracks%" -T "COMMENT=%comment%" %source% -o %dest%
TOC of the extracted CD
     Track |   Start  |  Length  | Start sector | End sector
    ---------------------------------------------------------
        1  |  0:00.00 |  5:28.17 |         0    |    24616
        2  |  5:28.17 |  4:57.20 |     24617    |    46911
        3  | 10:25.37 |  6:26.11 |     46912    |    75872
        4  | 16:51.48 |  3:59.65 |     75873    |    93862
        5  | 20:51.38 |  5:08.50 |     93863    |   117012
        6  | 26:00.13 |  4:40.41 |    117013    |   138053
        7  | 30:40.54 |  5:07.20 |    138054    |   161098
        8  | 35:47.74 |  4:16.54 |    161099    |   180352
        9  | 40:04.53 |  6:06.51 |    180353    |   207853
       10  | 46:11.29 |  5:31.47 |    207854    |   232725
       11  | 51:43.01 |  4:21.36 |    232726    |   252336
       12  | 56:04.37 |  4:32.56 |    252337    |   272792
       13  | 60:37.18 |  4:20.22 |    272793    |   292314
Track  1
     Filename C:\Users\Compta2\Music\Das Ich\1999 - Re_Laborat - Re_Animat\FLAC\101 - Der Schrei (Remixed By Laboratory X).wav
     Pre-gap length  0:00:02.00
     Peak level 99.9 %
     Extraction speed 4.4 X
     Track quality 100.0 %
     Test CRC E4604BBE
     Copy CRC E4604BBE
     Accurately ripped (confidence 1)  [9351760F]  (AR v2)
     Copy OK
Track  2
     Filename C:\Users\Compta2\Music\Das Ich\1999 - Re_Laborat - Re_Animat\FLAC\102 - Das Ich Im Ich (Remixed By And One).wav
     Pre-gap length  0:00:02.00
     Peak level 99.9 %
     Extraction speed 5.0 X
     Track quality 100.0 %
     Test CRC 8470A21D
     Copy CRC 8470A21D
     Accurately ripped (confidence 1)  [22605147]  (AR v2)
     Copy OK
Track  3
     Filename C:\Users\Compta2\Music\Das Ich\1999 - Re_Laborat - Re_Animat\FLAC\103 - Unschuld Erde (Remixed By Funker Vogt).wav
     Pre-gap length  0:00:02.00
     Peak level 99.9 %
     Extraction speed 5.7 X
     Track quality 100.0 %
     Test CRC D4D915EA
     Copy CRC D4D915EA
     Accurately ripped (confidence 1)  [E16D7322]  (AR v2)
     Copy OK
Track  4
     Filename C:\Users\Compta2\Music\Das Ich\1999 - Re_Laborat - Re_Animat\FLAC\104 - Erde Ruft (Remixed By Kramm).wav
     Pre-gap length  0:00:02.00
     Peak level 99.9 %
     Extraction speed 5.8 X
     Track quality 100.0 %
     Test CRC F00DB17D
     Copy CRC F00DB17D
     Accurately ripped (confidence 1)  [A0AC248C]  (AR v2)
     Copy OK
Track  5
     Filename C:\Users\Compta2\Music\Das Ich\1999 - Re_Laborat - Re_Animat\FLAC\105 - He Mensch (Remixed By Deine Lakaien).wav
     Pre-gap length  0:00:02.00
     Peak level 99.9 %
     Extraction speed 6.4 X
     Track quality 100.0 %
     Test CRC 07BB0B70
     Copy CRC 07BB0B70
     Accurately ripped (confidence 1)  [C0775D64]  (AR v2)
     Copy OK
Track  6
     Filename C:\Users\Compta2\Music\Das Ich\1999 - Re_Laborat - Re_Animat\FLAC\106 - Dem Ich Den Traum (Remixed By L'Ame Immortelle).wav
     Pre-gap length  0:00:02.00
     Peak level 99.9 %
     Extraction speed 5.7 X
     Track quality 99.9 %
     Test CRC 5D595D15
     Copy CRC 5D595D15
     Accurately ripped (confidence 1)  [12716F20]  (AR v2)
     Copy OK
Track  7
     Filename C:\Users\Compta2\Music\Das Ich\1999 - Re_Laborat - Re_Animat\FLAC\107 - Gottes Tod (Remixed By Dance Or Die).wav
     Pre-gap length  0:00:02.00
     Peak level 97.0 %
     Extraction speed 7.1 X
     Track quality 100.0 %
     Test CRC B1FCAFB4
     Copy CRC B1FCAFB4
     Accurately ripped (confidence 1)  [BB4E9B0C]  (AR v2)
     Copy OK
Track  8
     Filename C:\Users\Compta2\Music\Das Ich\1999 - Re_Laborat - Re_Animat\FLAC\108 - Aura (Remixed By Wumpscut).wav
     Pre-gap length  0:00:02.00
     Peak level 98.1 %
     Extraction speed 7.3 X
     Track quality 100.0 %
     Test CRC 8CA53891
     Copy CRC 8CA53891
     Accurately ripped (confidence 1)  [1D074F46]  (AR v2)
     Copy OK
Track  9
     Filename C:\Users\Compta2\Music\Das Ich\1999 - Re_Laborat - Re_Animat\FLAC\109 - Destillat (Remixed By VNV Nation).wav
     Pre-gap length  0:00:02.00
     Peak level 99.9 %
     Extraction speed 7.9 X
     Track quality 100.0 %
     Test CRC B33E5920
     Copy CRC B33E5920
     Accurately ripped (confidence 1)  [3A86848F]  (AR v2)
     Copy OK
Track 10
     Filename C:\Users\Compta2\Music\Das Ich\1999 - Re_Laborat - Re_Animat\FLAC\110 - Der Haß (Remixed By In Strict Confidence).wav
     Pre-gap length  0:00:02.00
     Peak level 99.9 %
     Extraction speed 8.2 X
     Track quality 100.0 %
     Test CRC 313640A5
     Copy CRC 313640A5
     Accurately ripped (confidence 1)  [136E1105]  (AR v2)
     Copy OK
Track 11
     Filename C:\Users\Compta2\Music\Das Ich\1999 - Re_Laborat - Re_Animat\FLAC\111 - Schwanenschrei (Remixed By Silke Bischoff).wav
     Pre-gap length  0:00:02.00
     Peak level 99.9 %
     Extraction speed 8.3 X
     Track quality 100.0 %
     Test CRC 9E575662
     Copy CRC 9E575662
     Accurately ripped (confidence 1)  [46D08710]  (AR v2)
     Copy OK
Track 12
     Filename C:\Users\Compta2\Music\Das Ich\1999 - Re_Laborat - Re_Animat\FLAC\112 - Des Satans Neue Kleider (Remixed By Atrocity).wav
     Pre-gap length  0:00:02.00
     Peak level 100.0 %
     Extraction speed 8.5 X
     Track quality 100.0 %
     Test CRC E96B1AEF
     Copy CRC E96B1AEF
     Accurately ripped (confidence 1)  [3A8D4C6F]  (AR v2)
     Copy OK
Track 13
     Filename C:\Users\Compta2\Music\Das Ich\1999 - Re_Laborat - Re_Animat\FLAC\113 - Kain Und Abel (Remixed By Kalte Farben).wav
     Pre-gap length  0:00:02.00
     Peak level 99.9 %
     Extraction speed 7.3 X
     Track quality 99.9 %
     Test CRC 23CF6F31
     Copy CRC 23CF6F31
     Accurately ripped (confidence 1)  [287EB9A5]  (AR v2)
     Copy OK
All tracks accurately ripped
No errors occurred
End of status report
---- CUETools DB Plugin V2.1.3
[CTDB TOCID: yAiibOOPA07ZxgT9BQn8deAA7kA-] found, Submit result: already submitted
[24ccfcd9] (3/3) Accurately ripped
==== Log checksum EB6E2AEE26174498CCC0B16F113D56947F14A2802AA599CFDBE37AE3F706156A ====
------------------------------------------------------------
Код:
Exact Audio Copy V1.0 beta 3 from 29. August 2011
EAC extraction logfile from 29. January 2014, 20:09
Das Ich / Re_Laborat - Re_Animat
Used drive  : hp      DVD A  DH16ACSH   Adapter: 0  ID: 1
Read mode               : Secure
Utilize accurate stream : Yes
Defeat audio cache      : Yes
Make use of C2 pointers : No
Read offset correction                      : 6
Overread into Lead-In and Lead-Out          : No
Fill up missing offset samples with silence : Yes
Delete leading and trailing silent blocks   : No
Null samples used in CRC calculations       : Yes
Used interface                              : Native Win32 interface for Win NT & 2000
Gap handling                                : Appended to previous track
Used output format              : User Defined Encoder
Selected bitrate                : 1024 kBit/s
Quality                         : High
Add ID3 tag                     : No
Command line compressor         : C:\Program Files (x86)\flac-1.3.0-icl\flac.exe
Additional command line options : -8 -V -T "ARTIST=%artist%" -T "TITLE=%title%" -T "ALBUM=%albumtitle%" -T "DATE=%year%" -T "TRACKNUMBER=%tracknr%" -T "GENRE=%genre%" -T "PERFORMER=%albuminterpret%" -T "COMPOSER=%composer%" %haslyrics%--tag-from-file=LYRICS="%lyricsfile%"%haslyrics% -T "ALBUMARTIST=%albumartist%" -T "DISCNUMBER=%cdnumber%" -T "TOTALDISCS=%totalcds%" -T "TOTALTRACKS=%numtracks%" -T "COMMENT=%comment%" %source% -o %dest%
TOC of the extracted CD
     Track |   Start  |  Length  | Start sector | End sector
    ---------------------------------------------------------
        1  |  0:00.00 |  4:55.46 |         0    |    22170
        2  |  4:55.46 |  5:11.54 |     22171    |    45549
        3  | 10:07.25 |  5:32.36 |     45550    |    70485
        4  | 15:39.61 |  5:13.03 |     70486    |    93963
        5  | 20:52.64 |  4:20.65 |     93964    |   113528
        6  | 25:13.54 |  5:12.32 |    113529    |   136960
        7  | 30:26.11 |  4:27.47 |    136961    |   157032
        8  | 34:53.58 |  3:16.63 |    157033    |   171795
        9  | 38:10.46 |  4:15.59 |    171796    |   190979
       10  | 42:26.30 |  5:18.53 |    190980    |   214882
       11  | 47:45.08 |  4:23.23 |    214883    |   234630
Track  1
     Filename C:\Users\Compta2\Music\Das Ich\1999 - Re_Laborat - Re_Animat\FLAC\201 - Kain und Abel (remixed by Girls Under Glass).wav
     Pre-gap length  0:00:02.00
     Peak level 99.9 %
     Extraction speed 1.9 X
     Track quality 100.0 %
     Test CRC AB22900A
     Copy CRC AB22900A
     Accurately ripped (confidence 1)  [EB9145DD]  (AR v2)
     Copy OK
Track  2
     Filename C:\Users\Compta2\Music\Das Ich\1999 - Re_Laborat - Re_Animat\FLAC\202 - Die Propheten (remixed by Catastrophe Ballet).wav
     Pre-gap length  0:00:02.00
     Peak level 99.0 %
     Extraction speed 1.7 X
     Track quality 99.9 %
     Test CRC AC1EE200
     Copy CRC AC1EE200
     Accurately ripped (confidence 1)  [6BA91652]  (AR v2)
     Copy OK
Track  3
     Filename C:\Users\Compta2\Music\Das Ich\1999 - Re_Laborat - Re_Animat\FLAC\203 - Kindgott (remixed The Fair Sex).wav
     Pre-gap length  0:00:02.00
     Peak level 99.7 %
     Extraction speed 2.4 X
     Track quality 100.0 %
     Test CRC 7F73BF69
     Copy CRC 7F73BF69
     Accurately ripped (confidence 1)  [9E6DCEC3]  (AR v2)
     Copy OK
Track  4
     Filename C:\Users\Compta2\Music\Das Ich\1999 - Re_Laborat - Re_Animat\FLAC\204 - Von der Armut (remixed by The Eternal Afflict).wav
     Pre-gap length  0:00:02.00
     Peak level 99.9 %
     Extraction speed 2.0 X
     Track quality 99.9 %
     Test CRC F0A05517
     Copy CRC F0A05517
     Accurately ripped (confidence 1)  [26116948]  (AR v2)
     Copy OK
Track  5
     Filename C:\Users\Compta2\Music\Das Ich\1999 - Re_Laborat - Re_Animat\FLAC\205 - Erde ruft (remixed by Plastic Noise Experience).wav
     Pre-gap length  0:00:02.00
     Peak level 99.9 %
     Extraction speed 2.7 X
     Track quality 100.0 %
     Test CRC 59A16F61
     Copy CRC 59A16F61
     Accurately ripped (confidence 1)  [9F769DAA]  (AR v2)
     Copy OK
Track  6
     Filename C:\Users\Compta2\Music\Das Ich\1999 - Re_Laborat - Re_Animat\FLAC\206 - Des Satans neue Kleider (remixed by Aghast View).wav
     Pre-gap length  0:00:02.00
     Peak level 99.9 %
     Extraction speed 2.3 X
     Track quality 99.9 %
     Test CRC AC551FC6
     Copy CRC AC551FC6
     Accurately ripped (confidence 1)  [CA9FB4C9]  (AR v2)
     Copy OK
Track  7
     Filename C:\Users\Compta2\Music\Das Ich\1999 - Re_Laborat - Re_Animat\FLAC\207 - Gottes Tod (remixed by Cat Rapes Dog).wav
     Pre-gap length  0:00:02.00
     Peak level 99.9 %
     Extraction speed 3.1 X
     Track quality 100.0 %
     Test CRC F09D2DD3
     Copy CRC F09D2DD3
     Accurately ripped (confidence 1)  [826368D7]  (AR v2)
     Copy OK
Track  8
     Filename C:\Users\Compta2\Music\Das Ich\1999 - Re_Laborat - Re_Animat\FLAC\208 - Dein Leben (remixed by Imminent Starvation).wav
     Pre-gap length  0:00:02.00
     Peak level 99.9 %
     Extraction speed 2.1 X
     Track quality 99.9 %
     Test CRC 1C99A76A
     Copy CRC 1C99A76A
     Accurately ripped (confidence 1)  [84118DB0]  (AR v2)
     Copy OK
Track  9
     Filename C:\Users\Compta2\Music\Das Ich\1999 - Re_Laborat - Re_Animat\FLAC\209 - Von der Armut (reverse edit).wav
     Pre-gap length  0:00:02.00
     Peak level 100.0 %
     Extraction speed 3.3 X
     Track quality 100.0 %
     Test CRC 7FAFFF4B
     Copy CRC 7FAFFF4B
     Accurately ripped (confidence 1)  [9CFAD727]  (AR v2)
     Copy OK
Track 10
     Filename C:\Users\Compta2\Music\Das Ich\1999 - Re_Laborat - Re_Animat\FLAC\210 - Der Schrei.wav
     Pre-gap length  0:00:02.00
     Peak level 100.0 %
     Extraction speed 2.8 X
     Track quality 99.9 %
     Test CRC 9DF2A436
     Copy CRC 9DF2A436
     Accurately ripped (confidence 1)  [D4FCFF1F]  (AR v2)
     Copy OK
Track 11
     Filename C:\Users\Compta2\Music\Das Ich\1999 - Re_Laborat - Re_Animat\FLAC\211 - Re_Animat.wav
     Pre-gap length  0:00:02.00
     Peak level 100.0 %
     Extraction speed 2.7 X
     Track quality 99.9 %
     Test CRC F4EA3CC0
     Copy CRC F4EA3CC0
     Accurately ripped (confidence 1)  [3D8607DB]  (AR v2)
     Copy OK
All tracks accurately ripped
No errors occurred
End of status report
---- CUETools DB Plugin V2.1.3
[CTDB TOCID: n6tTX_KGHzWE4Dvng0qJNNRetuY-] found, Submit result: already submitted
[601fcade] (3/3) Accurately ripped
==== Log checksum 0321BAD7EA6A118F2DB04F9E120C42706CABCF1B5BCD538327AEAC32FE8AE47A ====
Код:
REM DATE 1999
REM DISCID A30F390D
REM COMMENT "ExactAudioCopy v1.0b3"
PERFORMER "Das Ich"
TITLE "Re_Laborat / Re_Animat"
FILE "Das Ich\1999 - Re_Laborat - Re_Animat\FLAC\101 - Der Schrei (Remixed By Laboratory X).wav" WAVE
  TRACK 01 AUDIO
    TITLE "Der Schrei (Remixed By Laboratory X)"
    PERFORMER "Das Ich"
    INDEX 01 00:00:00
  TRACK 02 AUDIO
    TITLE "Das Ich Im Ich (Remixed By And One)"
    PERFORMER "Das Ich"
    INDEX 00 05:26:17
FILE "Das Ich\1999 - Re_Laborat - Re_Animat\FLAC\102 - Das Ich Im Ich (Remixed By And One).wav" WAVE
    INDEX 01 00:00:00
  TRACK 03 AUDIO
    TITLE "Unschuld Erde (Remixed By Funker Vogt)"
    PERFORMER "Das Ich"
    INDEX 00 04:55:20
FILE "Das Ich\1999 - Re_Laborat - Re_Animat\FLAC\103 - Unschuld Erde (Remixed By Funker Vogt).wav" WAVE
    INDEX 01 00:00:00
  TRACK 04 AUDIO
    TITLE "Erde Ruft (Remixed By Kramm)"
    PERFORMER "Das Ich"
    INDEX 00 06:24:11
FILE "Das Ich\1999 - Re_Laborat - Re_Animat\FLAC\104 - Erde Ruft (Remixed By Kramm).wav" WAVE
    INDEX 01 00:00:00
  TRACK 05 AUDIO
    TITLE "He Mensch (Remixed By Deine Lakaien)"
    PERFORMER "Das Ich"
    INDEX 00 03:57:65
FILE "Das Ich\1999 - Re_Laborat - Re_Animat\FLAC\105 - He Mensch (Remixed By Deine Lakaien).wav" WAVE
    INDEX 01 00:00:00
  TRACK 06 AUDIO
    TITLE "Dem Ich Den Traum (Remixed By L'Ame Immortelle)"
    PERFORMER "Das Ich"
    INDEX 00 05:06:50
FILE "Das Ich\1999 - Re_Laborat - Re_Animat\FLAC\106 - Dem Ich Den Traum (Remixed By L'Ame Immortelle).wav" WAVE
    INDEX 01 00:00:00
  TRACK 07 AUDIO
    TITLE "Gottes Tod (Remixed By Dance Or Die)"
    PERFORMER "Das Ich"
    INDEX 00 04:38:41
FILE "Das Ich\1999 - Re_Laborat - Re_Animat\FLAC\107 - Gottes Tod (Remixed By Dance Or Die).wav" WAVE
    INDEX 01 00:00:00
  TRACK 08 AUDIO
    TITLE "Aura (Remixed By Wumpscut)"
    PERFORMER "Das Ich"
    INDEX 00 05:05:20
FILE "Das Ich\1999 - Re_Laborat - Re_Animat\FLAC\108 - Aura (Remixed By Wumpscut).wav" WAVE
    INDEX 01 00:00:00
  TRACK 09 AUDIO
    TITLE "Destillat (Remixed By VNV Nation)"
    PERFORMER "Das Ich"
    INDEX 00 04:14:54
FILE "Das Ich\1999 - Re_Laborat - Re_Animat\FLAC\109 - Destillat (Remixed By VNV Nation).wav" WAVE
    INDEX 01 00:00:00
  TRACK 10 AUDIO
    TITLE "Der HaЯ (Remixed By In Strict Confidence)"
    PERFORMER "Das Ich"
    INDEX 00 06:04:51
FILE "Das Ich\1999 - Re_Laborat - Re_Animat\FLAC\110 - Der HaЯ (Remixed By In Strict Confidence).wav" WAVE
    INDEX 01 00:00:00
  TRACK 11 AUDIO
    TITLE "Schwanenschrei (Remixed By Silke Bischoff)"
    PERFORMER "Das Ich"
    INDEX 00 05:29:47
FILE "Das Ich\1999 - Re_Laborat - Re_Animat\FLAC\111 - Schwanenschrei (Remixed By Silke Bischoff).wav" WAVE
    INDEX 01 00:00:00
  TRACK 12 AUDIO
    TITLE "Des Satans Neue Kleider (Remixed By Atrocity)"
    PERFORMER "Das Ich"
    INDEX 00 04:19:36
FILE "Das Ich\1999 - Re_Laborat - Re_Animat\FLAC\112 - Des Satans Neue Kleider (Remixed By Atrocity).wav" WAVE
    INDEX 01 00:00:00
  TRACK 13 AUDIO
    TITLE "Kain Und Abel (Remixed By Kalte Farben)"
    PERFORMER "Das Ich"
    INDEX 00 04:30:56
FILE "Das Ich\1999 - Re_Laborat - Re_Animat\FLAC\113 - Kain Und Abel (Remixed By Kalte Farben).wav" WAVE
    INDEX 01 00:00:00
Код:
REM GENRE Electronic
REM DATE 1999
REM DISCID A50C380B
REM COMMENT "ExactAudioCopy v1.0b3"
PERFORMER "Das Ich"
TITLE "Re_Laborat - Re_Animat"
FILE "Das Ich\1999 - Re_Laborat - Re_Animat\FLAC\201 - Kain und Abel (remixed by Girls Under Glass).wav" WAVE
  TRACK 01 AUDIO
    TITLE "Kain und Abel (remixed by Girls Under Glass)"
    PERFORMER "Das Ich"
    INDEX 01 00:00:00
  TRACK 02 AUDIO
    TITLE "Die Propheten (remixed by Catastrophe Ballet)"
    PERFORMER "Das Ich"
    INDEX 00 04:53:46
FILE "Das Ich\1999 - Re_Laborat - Re_Animat\FLAC\202 - Die Propheten (remixed by Catastrophe Ballet).wav" WAVE
    INDEX 01 00:00:00
  TRACK 03 AUDIO
    TITLE "Kindgott (remixed The Fair Sex)"
    PERFORMER "Das Ich"
    INDEX 00 05:09:54
FILE "Das Ich\1999 - Re_Laborat - Re_Animat\FLAC\203 - Kindgott (remixed The Fair Sex).wav" WAVE
    INDEX 01 00:00:00
  TRACK 04 AUDIO
    TITLE "Von der Armut (remixed by The Eternal Afflict)"
    PERFORMER "Das Ich"
    INDEX 00 05:30:36
FILE "Das Ich\1999 - Re_Laborat - Re_Animat\FLAC\204 - Von der Armut (remixed by The Eternal Afflict).wav" WAVE
    INDEX 01 00:00:00
  TRACK 05 AUDIO
    TITLE "Erde ruft (remixed by Plastic Noise Experience)"
    PERFORMER "Das Ich"
    INDEX 00 05:11:03
FILE "Das Ich\1999 - Re_Laborat - Re_Animat\FLAC\205 - Erde ruft (remixed by Plastic Noise Experience).wav" WAVE
    INDEX 01 00:00:00
  TRACK 06 AUDIO
    TITLE "Des Satans neue Kleider (remixed by Aghast View)"
    PERFORMER "Das Ich"
    INDEX 00 04:18:65
FILE "Das Ich\1999 - Re_Laborat - Re_Animat\FLAC\206 - Des Satans neue Kleider (remixed by Aghast View).wav" WAVE
    INDEX 01 00:00:00
  TRACK 07 AUDIO
    TITLE "Gottes Tod (remixed by Cat Rapes Dog)"
    PERFORMER "Das Ich"
    INDEX 00 05:10:32
FILE "Das Ich\1999 - Re_Laborat - Re_Animat\FLAC\207 - Gottes Tod (remixed by Cat Rapes Dog).wav" WAVE
    INDEX 01 00:00:00
  TRACK 08 AUDIO
    TITLE "Dein Leben (remixed by Imminent Starvation)"
    PERFORMER "Das Ich"
    INDEX 00 04:25:47
FILE "Das Ich\1999 - Re_Laborat - Re_Animat\FLAC\208 - Dein Leben (remixed by Imminent Starvation).wav" WAVE
    INDEX 01 00:00:00
  TRACK 09 AUDIO
    TITLE "Von der Armut (reverse edit)"
    PERFORMER "Das Ich"
    INDEX 00 03:14:63
FILE "Das Ich\1999 - Re_Laborat - Re_Animat\FLAC\209 - Von der Armut (reverse edit).wav" WAVE
    INDEX 01 00:00:00
  TRACK 10 AUDIO
    TITLE "Der Schrei"
    PERFORMER "Das Ich"
    INDEX 00 04:13:59
FILE "Das Ich\1999 - Re_Laborat - Re_Animat\FLAC\210 - Der Schrei.wav" WAVE
    INDEX 01 00:00:00
  TRACK 11 AUDIO
    TITLE "Re_Animat"
    PERFORMER "Das Ich"
    INDEX 00 05:16:53
FILE "Das Ich\1999 - Re_Laborat - Re_Animat\FLAC\211 - Re_Animat.wav" WAVE
    INDEX 01 00:00:00
Доп. информация: www.discogs.com/Das-Ich-Re_Laborat-Re_A ... ase/547824
Правила, инструкции, FAQ!!!
Торрент  Добавлен [26 июн 2020, 17:45] Скачать торрент Магнет ссылка
Скачать торрент
[ Размер 19.77 КБ / Просмотров 10 ]

Статус
Проверен 
 
Размер  820.35 МБ
Приватный: Нет (DHT включён)
.torrent скачан  0
 


     Отправить личное сообщение
   
Страница 1 из 1
Показать сообщения за:  Поле сортировки  
Начать новую тему Ответить на тему


Сейчас этот форум просматривают: нет зарегистрированных пользователей и гости: 0


Вы не можете начинать темы
Вы не можете отвечать на сообщения
Вы не можете редактировать свои сообщения
Вы не можете удалять свои сообщения
Вы не можете добавлять вложения

Перейти:  
cron