Начать новую тему Ответить на тему
Статистика раздачи
Размер: 342.29 МБ | Добавлен: 26 июн 2020, 17:26 | Скачали: 0
Сидеров: 0  [0 байт/сек]    Личеров: 0  [0 байт/сек]
Пред. тема | След. тема 

Автор
Сообщение

СообщениеДобавлено: 26 июн 2020, 17:26 

Ответить с цитатой 

Attrition
The Hidden Agenda
Жанр: Electro, Industrial, Darkwave
Страна-производитель диска: Germany
Год издания диска: 1993
Издатель (лейбл): Hyperium Records
Номер по каталогу: 39100812 42
Страна: UK
Аудиокодек: WavPack (*.wv)
Тип рипа: image+.cue
Битрейт аудио: lossless
Продолжительность: 46:09
Источник (релизер): собственный рип
Наличие сканов в содержимом раздачи: да
Треклист:
01. Agenda Station [5:02]
02. Lip Sync [3:54]
03. The Deadline [4:05]
04. This Great Design [4:53]
05. The Silent Mind [3:56]
06. The Cage [4:15]
07. The Mercy Machine [5:13]
08. The Next Day (revisited) [4:12]
09. The Third House [4:34]
10. A Wing And A Prayer [6:06]
...i) Hymn
...ii) Interference
...iii) Storming The Cathedral
Код:
Exact Audio Copy V0.99 prebeta 5 from 4. May 2009
Отчёт EAC об извлечении, выполненном 13. декабря 2011, 21:09
Attrition / The Hidden Agenda
Дисковод: PIONEER DVD-RW  DVR-219L   Adapter: 0  ID: 0
Режим чтения                 : Достоверность
Использование точного потока : Да
Отключение кэша аудио        : Да
Использование указателей C2  : Нет
Коррекция смещения при чтении                     : 6
Способность читать области Lead-in и Lead-out     : Нет
Заполнение пропущенных сэмплов тишиной            : Да
Удаление блоков с тишиной в начале и конце        : Нет
При вычислениях CRC использовались нулевые сэмплы : Да
Интерфейс                                         : Встроенный Win32-интерфейс для Win NT/2000
Выходной формат : Внутренние WAV-операции
Формат сэмплов  : 44.100 Гц; 16 бит; стерео
TOC извлечённого CD
     Трек |   Старт  | Длительность | Начальный сектор | Конечный сектор
    ---------------------------------------------------------------------
       1  |  0:00.00 |    5:02.10   |           0      |      22659
       2  |  5:02.10 |    3:54.00   |       22660      |      40209
       3  |  8:56.10 |    4:04.50   |       40210      |      58559
       4  | 13:00.60 |    4:52.40   |       58560      |      80499
       5  | 17:53.25 |    3:55.62   |       80500      |      98186
       6  | 21:49.12 |    4:15.10   |       98187      |     117321
       7  | 26:04.22 |    5:13.18   |      117322      |     140814
       8  | 31:17.40 |    4:11.52   |      140815      |     159691
       9  | 35:29.17 |    4:34.23   |      159692      |     180264
      10  | 40:03.40 |    6:05.65   |      180265      |     207704
Характеристики диапазона извлечения и сообщения об ошибках
Выбранный диапазон
     Имя файла C:\Documents and Settings\agni\Мои документы\EAC\Attrition - The Hidden Agenda.wav
     Пиковый уровень 95.5 %
     Качество диапазона 99.9 %
     CRC теста 61FEFF98
     CRC копии 61FEFF98
     Копирование... OK
Ошибок не произошло
AccurateRip: сводка
Трек  1  точное извлечение (доверие 4)  [9BC40EEB]
Трек  2  точное извлечение (доверие 4)  [AC3177AF]
Трек  3  точное извлечение (доверие 4)  [0FFAF697]
Трек  4  точное извлечение (доверие 4)  [6D367D9B]
Трек  5  точное извлечение (доверие 4)  [E59CF6A8]
Трек  6  точное извлечение (доверие 4)  [D4C609C1]
Трек  7  точное извлечение (доверие 4)  [F29CBBC6]
Трек  8  точное извлечение (доверие 4)  [CDC61D24]
Трек  9  точное извлечение (доверие 4)  [C5E84EB8]
Трек 10  точное извлечение (доверие 4)  [7EE6AE38]
Все треки извлечены точно
Конец отчёта

All music and lyrics: Martin Bowes except "The Next Day": Bowes / Niblock / Waller.
All songs published by Hypnoton except "The Next Day" - Roadster Music Ltd.
"The Hidden Agenda" was recorded during 1992 and mixed at The Cage, Coventry, England January - May 1993.
Production, mixed and engineering: Martin Bowes and Mark Beswick.
Cover Artwork and design by Mark P. Lomax.
ATTRITION on this recording were:
Martin Bowes: Voice, electronics and programming
Julia Waller: Voice
Thanks to -
Jennifer Raven for Hymn,
Jane Harman for laugh,
John Waller for techincal help,
Kev Gould for equipment loan,
Ellie, Rebecca and Bob for Live interpretations,
Sam Rosenthal for continued suport,
Shen, Garry, Dave and Jane for Friendship.
This album is dedicated to innocence.
Правила, инструкции, FAQ!!!
Торрент  Добавлен [26 июн 2020, 17:26] Скачать торрент Магнет ссылка
Скачать торрент
[ Размер 28.38 КБ / Просмотров 21 ]

Статус
Проверен 
 
Размер  342.29 МБ
Приватный: Нет (DHT включён)
.torrent скачан  0
 


     Отправить личное сообщение
   
Страница 1 из 1
Показать сообщения за:  Поле сортировки  
Начать новую тему Ответить на тему


Сейчас этот форум просматривают: нет зарегистрированных пользователей и гости: 0


Вы не можете начинать темы
Вы не можете отвечать на сообщения
Вы не можете редактировать свои сообщения
Вы не можете удалять свои сообщения
Вы не можете добавлять вложения

Перейти:  
cron