Начать новую тему Ответить на тему
Статистика раздачи
Размер: 443.11 МБ | Добавлен: 26 июн 2020, 19:54 | Скачали: 0
Сидеров: 0  [0 байт/сек]    Личеров: 0  [0 байт/сек]
Пред. тема | След. тема 

Автор
Сообщение

СообщениеДобавлено: 26 июн 2020, 19:54 

Ответить с цитатой 

Attrition - 3 Arms And A Dead Cert (CD, Album+CD, EP, Ltd)
Жанр: Electro, Industrial, Darkwave
Год выпуска диска: 1996
Производитель диска: Germany
Аудио кодек: FLAC
Тип рипа: image+.cue
Битрейт аудио: lossless
Продолжительность: 50:40; 24:13
Трэклист:
3 Arms And A Dead Cert
1-01 ...Tune In
1-02 White Men Talk
1-03 Cosmetic Citizen
1-04 Slice Of Life
1-05 Acid Tongue
1-06 One Of These Mornings...
1-07 The Second Hand
1-08 Demi-God
1-09 Predicament?
1-10 Red Eye
1-11 3 Arms And A Dead Cert
1-12 Prelude...
Код:
Exact Audio Copy V0.99 prebeta 4 from 23. January 2008
EAC extraction logfile from 21. March 2009, 19:35
Attrition / 3 arms and a dead cert
Used drive  : PLEXTOR DVD-ROM PX-116A2   Adapter: 0  ID: 1
Read mode               : Secure
Utilize accurate stream : Yes
Defeat audio cache      : Yes
Make use of C2 pointers : No
Read offset correction                      : 102
Overread into Lead-In and Lead-Out          : No
Fill up missing offset samples with silence : Yes
Delete leading and trailing silent blocks   : No
Null samples used in CRC calculations       : Yes
Used interface                              : Installed external ASPI interface
Used output format              : User Defined Encoder
Selected bitrate                : 1024 kBit/s
Quality                         : High
Add ID3 tag                     : No
Command line compressor         : C:\Program Files\FLAC\flac.exe
Additional command line options : -8 -V -T "ARTIST=%a" -T "TITLE=%t" -T "ALBUM=%g" -T "DATE=%y" -T "TRACKNUMBER=%n" -T "GENRE=%m" -T "COMMENT=EAC FLAC -8" %s
TOC of the extracted CD
     Track |   Start  |  Length  | Start sector | End sector
    ---------------------------------------------------------
        1  |  0:00.00 |  0:35.22 |         0    |     2646
        2  |  0:35.22 |  4:45.74 |      2647    |    24095
        3  |  5:21.21 |  4:47.15 |     24096    |    45635
        4  | 10:08.36 |  4:24.37 |     45636    |    65472
        5  | 14:32.73 |  4:19.74 |     65473    |    84971
        6  | 18:52.72 |  5:42.21 |     84972    |   110642
        7  | 24:35.18 |  4:29.57 |    110643    |   130874
        8  | 29:05.00 |  4:00.16 |    130875    |   148890
        9  | 33:05.16 |  5:32.12 |    148891    |   173802
       10  | 38:37.28 |  3:54.74 |    173803    |   191426
       11  | 42:32.27 |  5:41.16 |    191427    |   217017
       12  | 48:13.43 |  2:26.23 |    217018    |   227990
Range status and errors
Selected range
     Filename D:\torrent1\Attrition - 3 Arms And A Dead Cert\Attrition - 3 arms and a dead cert.wav
     Peak level 100.0 %
     Range quality 100.0 %
     Test CRC 8AB2EB0F
     Copy CRC 8AB2EB0F
     Copy OK
No errors occurred
AccurateRip summary
Track  1  not present in database
Track  2  not present in database
Track  3  not present in database
Track  4  not present in database
Track  5  not present in database
Track  6  not present in database
Track  7  not present in database
Track  8  not present in database
Track  9  not present in database
Track 10  not present in database
Track 11  not present in database
Track 12  not present in database
None of the tracks are present in the AccurateRip database
End of status report
The Electronica Sessions
2-01 Agenda Station
2-02 Right Hand Man
2-03 My Friend Is Golden
2-04 Scenario
2-05 The Outer Edge
2-06 Fusillade VI
Код:
Exact Audio Copy V0.99 prebeta 4 from 23. January 2008
EAC extraction logfile from 21. March 2009, 21:26
attrition / the electronica sessions
Used drive  : PLEXTOR DVD-ROM PX-116A2   Adapter: 0  ID: 1
Read mode               : Secure
Utilize accurate stream : Yes
Defeat audio cache      : Yes
Make use of C2 pointers : No
Read offset correction                      : 102
Overread into Lead-In and Lead-Out          : No
Fill up missing offset samples with silence : Yes
Delete leading and trailing silent blocks   : No
Null samples used in CRC calculations       : Yes
Used interface                              : Installed external ASPI interface
Used output format              : User Defined Encoder
Selected bitrate                : 1024 kBit/s
Quality                         : High
Add ID3 tag                     : No
Command line compressor         : C:\Program Files\FLAC\flac.exe
Additional command line options : -8 -V -T "ARTIST=%a" -T "TITLE=%t" -T "ALBUM=%g" -T "DATE=%y" -T "TRACKNUMBER=%n" -T "GENRE=%m" -T "COMMENT=EAC FLAC -8" %s
TOC of the extracted CD
     Track |   Start  |  Length  | Start sector | End sector
    ---------------------------------------------------------
        1  |  0:00.00 |  4:52.17 |         0    |    21916
        2  |  4:52.17 |  4:08.04 |     21917    |    40520
        3  |  9:00.21 |  3:15.00 |     40521    |    55145
        4  | 12:15.21 |  4:20.31 |     55146    |    74676
        5  | 16:35.52 |  3:50.42 |     74677    |    91968
        6  | 20:26.19 |  3:46.29 |     91969    |   108947
Range status and errors
Selected range
     Filename D:\torrent1\Attrition - 3 Arms And A Dead Cert\attrition - the electronica sessions.wav
     Peak level 100.0 %
     Range quality 100.0 %
     Test CRC C6D973C7
     Copy CRC C6D973C7
     Copy OK
No errors occurred
AccurateRip summary
Track  1  not present in database
Track  2  not present in database
Track  3  not present in database
Track  4  not present in database
Track  5  not present in database
Track  6  not present in database
None of the tracks are present in the AccurateRip database
End of status report
Доп. информация:
Label:Hyperium Records, Catalog#: 39101572, 39101572 +
Notes: 3 Arms And A Dead Cert (CD 39101572)
Recorded, mixed and mastered at The Cage, Coventry, England, January - May 1995.
The Electronica Sessions (CD 39101572 +)
Six songs selected from the 1994 'UK Electronica' show.
Recorded live in session and mixed at The Cage, May 1995.
Limited to 2000 copies.
Еще альбомы:
Attrition - Kissing A Virtual AngelAttrition - EphemeraAttrition - ...This Death HouseAttrition - The Attrition Of ReasonAttrition - In The Realm Of The Hungry Ghosts
Правила, инструкции, FAQ!!!
Торрент  Добавлен [26 июн 2020, 19:54] Скачать торрент Магнет ссылка
Скачать торрент
[ Размер 18.2 КБ / Просмотров 9 ]

Статус
Проверен 
 
Размер  443.11 МБ
Приватный: Нет (DHT включён)
.torrent скачан  0
 


     Отправить личное сообщение
   
Страница 1 из 1
Показать сообщения за:  Поле сортировки  
Начать новую тему Ответить на тему


Сейчас этот форум просматривают: нет зарегистрированных пользователей и гости: 0


Вы не можете начинать темы
Вы не можете отвечать на сообщения
Вы не можете редактировать свои сообщения
Вы не можете удалять свои сообщения
Вы не можете добавлять вложения

Перейти:  
cron