Начать новую тему Ответить на тему
Статистика раздачи
Размер: 296.59 МБ | Добавлен: 26 июн 2020, 17:51 | Скачали: 0
Сидеров: 0  [0 байт/сек]    Личеров: 0  [0 байт/сек]
Пред. тема | След. тема 

Автор
Сообщение

СообщениеДобавлено: 26 июн 2020, 17:51 

Ответить с цитатой 

Antisisters / UNZ!
Жанр: Electro-Industrial, Darkwave
Носитель: CD
Страна-производитель диска (релиза): Russia
Год издания: 2005
Издатель (лейбл): Shadowplay Release
Номер по каталогу: SPR 010
Страна исполнителя (группы): Russia
Аудиокодек: FLAC (*.flac)
Тип рипа: image+.cue
Продолжительность: 0:48:33
Источник: собственный рип
Наличие сканов в содержимом раздачи: да
Треклист:
1. Saint Sinner [4:57]
2. Fucked By Angels [3:44]
3. Kraft Und Energie [5:05]
4. Grayscale Dreams [6:03]
5. Creation [5:03]
6. Clay [4:36]
7. Smiling [4:52]
8. No Never Again [3:31]
9. Catch My Falling Star [4:46]
10. Saint Sinner (Supremus Plastice Mix) [5:51]
Код:
Exact Audio Copy V1.3 from 2. September 2016
EAC extraction logfile from 3. September 2019, 0:03
Antisisters / UNZ!
Used drive  : MATSHITADVD-RAM UJ-841S   Adapter: 1  ID: 1
Read mode               : Secure
Utilize accurate stream : Yes
Defeat audio cache      : Yes
Make use of C2 pointers : No
Read offset correction                      : 102
Overread into Lead-In and Lead-Out          : No
Fill up missing offset samples with silence : Yes
Delete leading and trailing silent blocks   : No
Null samples used in CRC calculations       : Yes
Used interface                              : Native Win32 interface for Win NT & 2000
Used output format              : User Defined Encoder
Selected bitrate                : 128 kBit/s
Quality                         : High
Add ID3 tag                     : No
Command line compressor         : C:\Program Files (x86)\Exact Audio Copy\Flac\flac.exe
Additional command line options : -V -8 -T "Date=%year%" -T "Genre=%genre%" %source%
TOC of the extracted CD
     Track |   Start  |  Length  | Start sector | End sector
    ---------------------------------------------------------
        1  |  0:00.00 |  4:57.26 |         0    |    22300
        2  |  4:57.26 |  3:44.71 |     22301    |    39171
        3  |  8:42.22 |  5:05.18 |     39172    |    62064
        4  | 13:47.40 |  6:03.25 |     62065    |    89314
        5  | 19:50.65 |  5:03.70 |     89315    |   112109
        6  | 24:54.60 |  4:36.16 |    112110    |   132825
        7  | 29:31.01 |  4:52.39 |    132826    |   154764
        8  | 34:23.40 |  3:31.15 |    154765    |   170604
        9  | 37:54.55 |  4:46.43 |    170605    |   192097
       10  | 42:41.23 |  5:52.07 |    192098    |   218504
Range status and errors
Selected range
     Filename C:\Zloslaw\Antisisters - UNZ!\Antisisters - UNZ!.wav
     Peak level 53.2 %
     Extraction speed 3.8 X
     Range quality 100.0 %
     Test CRC 093118F4
     Copy CRC 093118F4
     Copy OK
No errors occurred
AccurateRip summary
Track  1  not present in database
Track  2  not present in database
Track  3  not present in database
Track  4  not present in database
Track  5  not present in database
Track  6  not present in database
Track  7  not present in database
Track  8  not present in database
Track  9  not present in database
Track 10  not present in database
None of the tracks are present in the AccurateRip database
End of status report
---- CUETools DB Plugin V2.1.6
[CTDB TOCID: cygVgdXsCz9m_a_ycDIAgQ_J05I-] found
Submit result: already submitted
Track | CTDB Status
  1   | (1/1) Accurately ripped
  2   | (1/1) Accurately ripped
  3   | (1/1) Accurately ripped
  4   | (1/1) Accurately ripped
  5   | (1/1) Accurately ripped
  6   | (1/1) Accurately ripped
  7   | (1/1) Accurately ripped
  8   | (1/1) Accurately ripped
  9   | (1/1) Accurately ripped
 10   | (1/1) Accurately ripped
==== Log checksum 4368455A17767B3A7034D490BE60165B79F4E0315BA76B2A3223BD97FB7ED453 ====
Правила, инструкции, FAQ!!!
Торрент  Добавлен [26 июн 2020, 17:51] Скачать торрент Магнет ссылка
Скачать торрент
[ Размер 48.48 КБ / Просмотров 7 ]

Статус
Проверен 
 
Размер  296.59 МБ
Приватный: Нет (DHT включён)
.torrent скачан  0
 


     Отправить личное сообщение
   
Страница 1 из 1
Показать сообщения за:  Поле сортировки  
Начать новую тему Ответить на тему


Сейчас этот форум просматривают: нет зарегистрированных пользователей и гости: 0


Вы не можете начинать темы
Вы не можете отвечать на сообщения
Вы не можете редактировать свои сообщения
Вы не можете удалять свои сообщения
Вы не можете добавлять вложения

Перейти:  
cron