Начать новую тему Ответить на тему
Статистика раздачи
Размер: 440.85 МБ | Добавлен: 26 июн 2020, 20:43 | Скачали: 0
Сидеров: 0  [0 байт/сек]    Личеров: 0  [0 байт/сек]
Пред. тема | След. тема 

Автор
Сообщение

СообщениеДобавлено: 26 июн 2020, 20:43 

Ответить с цитатой 

Run Level Zero- Symbol of Submisson
Жанр: electro-industrial, dark electro
Год выпуска диска: 2001
Производитель диска: Канада
Аудио кодек: FLAC
Тип рипа: image+.cue
Продолжительность: 01:02:50
Трэклист:
Shadows Merging 5:22
Strapped to Machinery 4:37
My Tormentor 4:07
No Relief 5:56
Take Charge 4:36
Fever Shriek 6:11
Terror to Sustain 5:03
Black Limbs 5:10
Battle of the Flies 6:14
Eating the Misery 5:07
Feedback Birds 3:23
Entropy 6:59
Доп. информация: дебютный альбом интересен хотя бы уже поэтому
рип сделан с пирацкого диска, по заверениям продавца, скопированного с оригинала.
Exact Audio Copy V0.99 prebeta 5 from 4. May 2009
EAC extraction logfile from 2. June 2009, 19:10
Run Level Zero / Symbol of Submission
Used drive : ASUS DRW-2014L1T Adapter: 3 ID: 0
Read mode : Secure
Utilize accurate stream : Yes
Defeat audio cache : Yes
Make use of C2 pointers : No
Read offset correction : 6
Overread into Lead-In and Lead-Out : No
Fill up missing offset samples with silence : Yes
Delete leading and trailing silent blocks : No
Null samples used in CRC calculations : Yes
Used interface : Native Win32 interface for Win NT & 2000
Used output format : User Defined Encoder
Selected bitrate : 32 kBit/s
Quality : High
Add ID3 tag : No
Command line compressor : C:\Program Files\Exact Audio Copy\FLAC\FLAC.EXE
Additional command line options : -8 -V -T "ARTIST=%a" -T "TITLE=%t" -T "ALBUM=%g" -T "DATE=%y" -T "TRACKNUMBER=%n" -T "GENRE=%m" -T "COMMENT=%e" %s -o %d
TOC of the extracted CD
Track | Start | Length | Start sector | End sector
---------------------------------------------------------
1 | 0:00.00 | 5:22.18 | 0 | 24167
2 | 5:22.18 | 4:37.29 | 24168 | 44971
3 | 9:59.47 | 4:07.11 | 44972 | 63507
4 | 14:06.58 | 5:56.31 | 63508 | 90238
5 | 20:03.14 | 4:36.38 | 90239 | 110976
6 | 24:39.52 | 6:11.53 | 110977 | 138854
7 | 30:51.30 | 5:03.58 | 138855 | 161637
8 | 35:55.13 | 5:10.58 | 161638 | 184945
9 | 41:05.71 | 6:14.21 | 184946 | 213016
10 | 47:20.17 | 5:07.09 | 213017 | 236050
11 | 52:27.26 | 3:23.44 | 236051 | 251319
12 | 55:50.70 | 6:59.29 | 251320 | 282773
Range status and errors
Selected range
Filename J:\WAV\Run Level Zero- Symbol of Submission\Run Level Zero - Symbol of Submission.wav
Peak level 99.9 %
Range quality 100.0 %
Copy CRC 99AFF130
Copy OK
No errors occurred
End of status report
AUDIOCHECKER v1.2 - by Dester - opdester@freemail.hu
~~~~~~~~~~~~~~~~~
Started at: вторник, 02. 06. 2009. - 19:31.57
1 file found
1 -===- J:\WAV\Run Level Zero- Symbol of Submission\Run Level Zero - Symbol of Submission.flac
Extracted successfully
Conclusion: This track looks like CDDA with probability 99%
Tempfile successfully deleted.
Finished at: вторник, 02. 06. 2009. - 19:34.57 (operation time: 0:02.59)
Правила, инструкции, FAQ!!!
Торрент  Добавлен [26 июн 2020, 20:43] Скачать торрент Магнет ссылка
Скачать торрент
[ Размер 69.71 КБ / Просмотров 10 ]

Статус
Проверен 
 
Размер  440.85 МБ
Приватный: Нет (DHT включён)
.torrent скачан  0
 


     Отправить личное сообщение
   
Страница 1 из 1
Показать сообщения за:  Поле сортировки  
Начать новую тему Ответить на тему


Сейчас этот форум просматривают: нет зарегистрированных пользователей и гости: 0


Вы не можете начинать темы
Вы не можете отвечать на сообщения
Вы не можете редактировать свои сообщения
Вы не можете удалять свои сообщения
Вы не можете добавлять вложения

Перейти:  
cron