Начать новую тему Ответить на тему
Статистика раздачи
Размер: 362.83 МБ | Добавлен: 26 июн 2020, 17:07 | Скачали: 0
Сидеров: 0  [0 байт/сек]    Личеров: 0  [0 байт/сек]
Пред. тема | След. тема 

Автор
Сообщение

СообщениеДобавлено: 26 июн 2020, 17:07 

Ответить с цитатой 

Cylab / Satellites
Жанр: electro industrial
Страна-производитель диска: USA
Год издания диска: 2006
Издатель (лейбл): Whispercore Music
Номер по каталогу: WPCR001
Аудиокодек: FLAC (*.flac)
Тип рипа: image+.cue
Битрейт аудио: lossless
Продолжительность: 49:48.73
Источник (релизер): Физический носитель
Наличие сканов в содержимом раздачи: да
Треклист:
01. Satellites [5:26]
02. Content [4:11]
03. His Lost Reflection [4:24]
04. Parting Fields [4:21]
05. Embryo Time [5:02]
06. Masks Of Silence [5:14]
07. Dented Halos [4:43]
08. Tides [5:27]
09. Kundalini [3:58]
10. Prth [4:18]
11. Satellites (Reprise) [2:44]
Код:
Exact Audio Copy V1.0 beta 3 from 29. August 2011
Отчёт EAC об извлечении, выполненном 23. февраля 2012, 19:23
Cylab / Satellites
Дисковод: PIONEER DVD-RW  DVR-XD10   Adapter: 3  ID: 0
Режим чтения                 : Достоверность
Использование точного потока : Да
Отключение кэша аудио        : Да
Использование указателей C2  : Нет
Коррекция смещения при чтении                     : 96
Способность читать области Lead-in и Lead-out     : Нет
Заполнение пропущенных сэмплов тишиной            : Да
Удаление блоков с тишиной в начале и конце        : Нет
При вычислениях CRC использовались нулевые сэмплы : Да
Интерфейс                                         : Встроенный Win32-интерфейс для Win NT/2000
Выходной формат          : Пользовательский кодировщик
Выбранный битрейт        : 1024 kBit/s
Качество                 : Высокий
Добавление ID3-тега      : Нет
Утилита сжатия           : C:\Program Files\Exact Audio Copy\FLAC\FLAC.EXE
Дополнительные параметры : -6 -V -T "ARTIST=%artist%" -T "TITLE=%title%" -T "ALBUM=%albumtitle%" -T "DATE=%year%" -T "TRACKNUMBER=%tracknr%" -T "GENRE=%genre%" -T "COMMENT=%comment%" -T "BAND=%albuminterpret%" -T "ALBUMARTIST=%albuminterpret%" -T "COMPOSER=%composer%" %haslyrics%--tag-from-file=LYRICS="%lyricsfile%"%haslyrics% -T "DISCNUMBER=%cdnumber%" -T "TOTALDISCS=%totalcds%" -T "TOTALTRACKS=%numtracks%" %hascover%--picture="%coverfile%"%hascover% %source% -o %dest%
TOC извлечённого CD
     Трек |   Старт  | Длительность | Начальный сектор | Конечный сектор
    ---------------------------------------------------------------------
       1  |  0:00.00 |    5:26.08   |           0      |      24457
       2  |  5:26.08 |    4:10.57   |       24458      |      43264
       3  |  9:36.65 |    4:23.38   |       43265      |      63027
       4  | 14:00.28 |    4:20.74   |       63028      |      82601
       5  | 18:21.27 |    5:01.72   |       82602      |     105248
       6  | 23:23.24 |    5:14.08   |      105249      |     128806
       7  | 28:37.32 |    4:43.37   |      128807      |     150068
       8  | 33:20.69 |    5:27.36   |      150069      |     174629
       9  | 38:48.30 |    3:58.18   |      174630      |     192497
      10  | 42:46.48 |    4:18.19   |      192498      |     211866
      11  | 47:04.67 |    2:44.06   |      211867      |     224172
Характеристики диапазона извлечения и сообщения об ошибках
Выбранный диапазон
     Имя файла C:\Documents and Settings\Наташка\Рабочий стол\Cylab - Satellites.wav
     Пиковый уровень 97.7 %
     Скорость извлечения 1.6 X
     Качество диапазона 99.9 %
     CRC теста 923220EF
     CRC копии 923220EF
     Копирование... OK
Ошибок не произошло
AccurateRip: сводка
Трек  1  : извлечено точно (доверие 1)  [D3AA6D74]  (AR v1)
Трек  2  : извлечено точно (доверие 1)  [4D404BD1]  (AR v1)
Трек  3  : извлечено точно (доверие 1)  [88568D14]  (AR v1)
Трек  4  : извлечено точно (доверие 1)  [9599BBAF]  (AR v1)
Трек  5  : извлечено точно (доверие 1)  [E66FD4C0]  (AR v1)
Трек  6  : извлечено точно (доверие 1)  [7CEFDC50]  (AR v1)
Трек  7  : извлечено точно (доверие 1)  [C46EE302]  (AR v1)
Трек  8  : извлечено точно (доверие 1)  [336E45BC]  (AR v1)
Трек  9  : извлечено точно (доверие 1)  [993DA694]  (AR v1)
Трек 10  : извлечено точно (доверие 1)  [2D3F54A8]  (AR v1)
Трек 11  : извлечено точно (доверие 1)  [9809CDD9]  (AR v1)
Все треки извлечены точно
Конец отчёта
==== Контрольная сумма отчёта 25AAA1B4D3A919E9AB33EB059A8539CF29CABD19DB90D5891C0BEBB0A0EF92E3 ====
Правила, инструкции, FAQ!!!
Торрент  Добавлен [26 июн 2020, 17:07] Скачать торрент Магнет ссылка
Скачать торрент
[ Размер 15.14 КБ / Просмотров 4 ]

Статус
Проверен 
 
Размер  362.83 МБ
Приватный: Нет (DHT включён)
.torrent скачан  0
 


     Отправить личное сообщение
   
Страница 1 из 1
Показать сообщения за:  Поле сортировки  
Начать новую тему Ответить на тему


Сейчас этот форум просматривают: нет зарегистрированных пользователей и гости: 0


Вы не можете начинать темы
Вы не можете отвечать на сообщения
Вы не можете редактировать свои сообщения
Вы не можете удалять свои сообщения
Вы не можете добавлять вложения

Перейти:  
cron