Начать новую тему Ответить на тему
Статистика раздачи
Размер: 364.08 МБ | Добавлен: 26 июн 2020, 17:07 | Скачали: 0
Сидеров: 0  [0 байт/сек]    Личеров: 0  [0 байт/сек]
Пред. тема | След. тема 

Автор
Сообщение

СообщениеДобавлено: 26 июн 2020, 17:07 

Ответить с цитатой 

Cylab / Cut & Coil
Жанр: electro industrial
Страна-производитель диска: USA
Год издания диска: 2010
Издатель (лейбл): Whispercore Music
Номер по каталогу: WPCR003
Аудиокодек: FLAC (*.flac)
Тип рипа: image+.cue
Битрейт аудио: lossless
Продолжительность: 50:17.33
Источник (релизер): Физический носитель
Наличие сканов в содержимом раздачи: да
Треклист:
01. Skin [4:29]
02. Dragonfly Dream [4:35]
03. Cocoon [4:43]
04. Spheres [4:26]
05. Cut & Coil [4:47]
06. Shifting Time [4:38]
07. Red Blood, Clay And Dust [5:10]
08. Trigger [3:42]
09. The Hissing [3:47]
10. Kalika (Cut It Up) [3:48]
11. Dragonfly Dream (Totakeke remix) [6:13]
Код:
Exact Audio Copy V1.0 beta 3 from 29. August 2011
Отчёт EAC об извлечении, выполненном 23. февраля 2012, 20:02
Cylab / Cut & Coil
Дисковод: PIONEER DVD-RW  DVR-XD10   Adapter: 3  ID: 0
Режим чтения                 : Достоверность
Использование точного потока : Да
Отключение кэша аудио        : Да
Использование указателей C2  : Нет
Коррекция смещения при чтении                     : 96
Способность читать области Lead-in и Lead-out     : Нет
Заполнение пропущенных сэмплов тишиной            : Да
Удаление блоков с тишиной в начале и конце        : Нет
При вычислениях CRC использовались нулевые сэмплы : Да
Интерфейс                                         : Встроенный Win32-интерфейс для Win NT/2000
Выходной формат          : Пользовательский кодировщик
Выбранный битрейт        : 1024 kBit/s
Качество                 : Высокий
Добавление ID3-тега      : Нет
Утилита сжатия           : C:\Program Files\Exact Audio Copy\FLAC\FLAC.EXE
Дополнительные параметры : -6 -V -T "ARTIST=%artist%" -T "TITLE=%title%" -T "ALBUM=%albumtitle%" -T "DATE=%year%" -T "TRACKNUMBER=%tracknr%" -T "GENRE=%genre%" -T "COMMENT=%comment%" -T "BAND=%albuminterpret%" -T "ALBUMARTIST=%albuminterpret%" -T "COMPOSER=%composer%" %haslyrics%--tag-from-file=LYRICS="%lyricsfile%"%haslyrics% -T "DISCNUMBER=%cdnumber%" -T "TOTALDISCS=%totalcds%" -T "TOTALTRACKS=%numtracks%" %hascover%--picture="%coverfile%"%hascover% %source% -o %dest%
TOC извлечённого CD
     Трек |   Старт  | Длительность | Начальный сектор | Конечный сектор
    ---------------------------------------------------------------------
       1  |  0:00.00 |    4:29.11   |           0      |      20185
       2  |  4:29.11 |    4:34.42   |       20186      |      40777
       3  |  9:03.53 |    4:43.35   |       40778      |      62037
       4  | 13:47.13 |    4:26.07   |       62038      |      81994
       5  | 18:13.20 |    4:47.27   |       81995      |     103546
       6  | 23:00.47 |    4:37.43   |      103547      |     124364
       7  | 27:38.15 |    5:09.50   |      124365      |     147589
       8  | 32:47.65 |    3:41.58   |      147590      |     164222
       9  | 36:29.48 |    3:47.31   |      164223      |     181278
      10  | 40:17.04 |    3:47.60   |      181279      |     198363
      11  | 44:04.64 |    6:12.44   |      198364      |     226307
Характеристики диапазона извлечения и сообщения об ошибках
Выбранный диапазон
     Имя файла C:\Documents and Settings\Наташка\Рабочий стол\Cylab - Cut & Coil.wav
     Пиковый уровень 99.9 %
     Скорость извлечения 3.9 X
     Качество диапазона 100.0 %
     CRC теста A748C732
     CRC копии A748C732
     Копирование... OK
Ошибок не произошло
AccurateRip: сводка
Трек  1  : извлечено точно (доверие 1)  [EAA7ED95]  (AR v1)
Трек  2  : извлечено точно (доверие 1)  [6682F3A2]  (AR v1)
Трек  3  : извлечено точно (доверие 1)  [42180848]  (AR v1)
Трек  4  : извлечено точно (доверие 1)  [21C44DAD]  (AR v1)
Трек  5  : извлечено точно (доверие 1)  [2C36431C]  (AR v1)
Трек  6  : извлечено точно (доверие 1)  [A92E2E1E]  (AR v1)
Трек  7  : извлечено точно (доверие 1)  [83A97A0A]  (AR v1)
Трек  8  : извлечено точно (доверие 1)  [F8A139DE]  (AR v1)
Трек  9  : извлечено точно (доверие 1)  [15BC4122]  (AR v1)
Трек 10  : извлечено точно (доверие 1)  [B4C73369]  (AR v1)
Трек 11  отсутствует в базе данных
10 трек(и) скопированы точно
 1 трек(и) не содержатся в базе AccurateRip
Некоторые треки не прошли проверку на точность
Конец отчёта
==== Контрольная сумма отчёта E96DEF9EC4A567742C8BD05F7D9F8D13EB865223405E5446FBD80E779ACFB3F0 ====
Правила, инструкции, FAQ!!!
Торрент  Добавлен [26 июн 2020, 17:07] Скачать торрент Магнет ссылка
Скачать торрент
[ Размер 15.12 КБ / Просмотров 4 ]

Статус
Проверен 
 
Размер  364.08 МБ
Приватный: Нет (DHT включён)
.torrent скачан  0
 


     Отправить личное сообщение
   
Страница 1 из 1
Показать сообщения за:  Поле сортировки  
Начать новую тему Ответить на тему


Сейчас этот форум просматривают: нет зарегистрированных пользователей и гости: 0


Вы не можете начинать темы
Вы не можете отвечать на сообщения
Вы не можете редактировать свои сообщения
Вы не можете удалять свои сообщения
Вы не можете добавлять вложения

Перейти:  
cron