Начать новую тему Ответить на тему
Статистика раздачи
Размер: 508.48 МБ | Добавлен: 26 июн 2020, 16:48 | Скачали: 0
Сидеров: 0  [0 байт/сек]    Личеров: 0  [0 байт/сек]
Пред. тема | След. тема 

Автор
Сообщение

СообщениеДобавлено: 26 июн 2020, 16:48 

Ответить с цитатой 

Cyclone Б - Consequence of Hidden Truth
Жанр: Electro, Industrial
Год выпуска диска: 2005
Производитель диска: Россия
Аудио кодек: APE
Тип рипа: image+.cue
Битрейт аудио: lossless
Продолжительность: 69:16
Трэклист:
01. Reflection 6:06
02. Illusion 5:55
03. Sputnik U.S.S.R. 3:58
04. Agony 8:00
05. Thromb of Life 5:41
06. You'll Never Take Away 7:25
07. Master Of The World 5:54
08. Nothing 7:10
09. Defloration 6:22
10. Deathember 6:58
11. Razor 5:26
Код:
Exact Audio Copy V0.99 prebeta 5 from 4. May 2009
Отчёт EAC об извлечении, выполненном 29. декабря 2009, 20:38
Cyclone B / Consequence of hidden truth
Дисковод: ASUS    DRW-1814BL   Adapter: 1  ID: 0
Режим чтения                 : Достоверность
Использование точного потока : Да
Отключение кэша аудио        : Да
Использование указателей C2  : Нет
Коррекция смещения при чтении                     : 6
Способность читать области Lead-in и Lead-out     : Нет
Заполнение пропущенных сэмплов тишиной            : Да
Удаление блоков с тишиной в начале и конце        : Нет
При вычислениях CRC использовались нулевые сэмплы : Да
Интерфейс                                         : Установленный внешний ASPI-интерфейс
Выходной формат : Внутренние WAV-операции
Формат сэмплов  : 44.100 Гц; 16 бит; стерео
TOC извлечённого CD
     Трек |   Старт  | Длительность | Начальный сектор | Конечный сектор
    ---------------------------------------------------------------------
       1  |  0:00.00 |    6:08.35   |           0      |      27634
       2  |  6:08.35 |    5:57.08   |       27635      |      54417
       3  | 12:05.43 |    4:00.08   |       54418      |      72425
       4  | 16:05.51 |    8:02.08   |       72426      |     108583
       5  | 24:07.59 |    5:42.43   |      108584      |     134276
       6  | 29:50.27 |    7:27.08   |      134277      |     167809
       7  | 37:17.35 |    5:56.05   |      167810      |     194514
       8  | 43:13.40 |    7:12.20   |      194515      |     226934
       9  | 50:25.60 |    6:24.08   |      226935      |     255742
      10  | 56:49.68 |    7:00.09   |      255743      |     287251
      11  | 63:50.02 |    5:25.65   |      287252      |     311691
Характеристики диапазона извлечения и сообщения об ошибках
Выбранный диапазон
     Имя файла E:\! РАЗДАЧИ\Cyclone B - Consequence of hidden truth\Cyclone B - Consequence of
hidden truth.wav
     Пиковый уровень 100.0 %
     Качество диапазона 100.0 %
     CRC теста BF33C8A0
     CRC копии BF33C8A0
     Копирование... OK
Ошибок не произошло
AccurateRip: сводка
Трек  1  нет в базе данных
Трек  2  нет в базе данных
Трек  3  нет в базе данных
Трек  4  нет в базе данных
Трек  5  нет в базе данных
Трек  6  нет в базе данных
Трек  7  нет в базе данных
Трек  8  нет в базе данных
Трек  9  нет в базе данных
Трек 10  нет в базе данных
Трек 11  нет в базе данных
Ни одного трека нет в базе AccurateRip
Конец отчёта
Доп. информация: (p)+(c) Advoxia
AD-02-CD
Правила, инструкции, FAQ!!!
Торрент  Добавлен [26 июн 2020, 16:48] Скачать торрент Магнет ссылка
Скачать торрент
[ Размер 41.03 КБ / Просмотров 4 ]

Статус
Проверен 
 
Размер  508.48 МБ
Приватный: Нет (DHT включён)
.torrent скачан  0
 


     Отправить личное сообщение
   
Страница 1 из 1
Показать сообщения за:  Поле сортировки  
Начать новую тему Ответить на тему


Сейчас этот форум просматривают: нет зарегистрированных пользователей и гости: 0


Вы не можете начинать темы
Вы не можете отвечать на сообщения
Вы не можете редактировать свои сообщения
Вы не можете удалять свои сообщения
Вы не можете добавлять вложения

Перейти:  
cron