Начать новую тему Ответить на тему
Статистика раздачи
Размер: 320.9 МБ | Добавлен: 26 июн 2020, 17:31 | Скачали: 0
Сидеров: 0  [0 байт/сек]    Личеров: 0  [0 байт/сек]
Пред. тема | След. тема 

Автор
Сообщение

СообщениеДобавлено: 26 июн 2020, 17:31 

Ответить с цитатой 

Angelspit / Nurse Grenade
Жанр: Electro-Industrial / Cyberpunk
Носитель: CD
Страна-производитель диска (релиза): Australia
Год издания: 2007
Издатель (лейбл): Not On Label (Angelspit Self-Released)
Страна исполнителя (группы): Australia
Аудиокодек: FLAC (*.flac)
Тип рипа: tracks+.cue
Битрейт аудио: lossless
Продолжительность: 00:41:05
Источник (релизер): Usenet
Наличие сканов в содержимом раздачи: нет
Треклист:
01. Maggot
02. Fuck Fashion
03. Head Kult
04. Meat
05. Nurse Grenade
06. Infect
07. Headfuck (Head Kult Remix)
08. Psychic Vampire (Remix)
09. I Feel Disease (Remix)
10. Shitfed (Spoon Fed Remix)
Код:
Exact Audio Copy V0.99 prebeta 5 from 4. May 2009
EAC extraction logfile from 10. August 2009, 12:04
Angelspit / Nurse Grenade
Used drive  : ATAPI   DVD A  DH20A4P   Adapter: 6  ID: 0
Read mode               : Secure
Utilize accurate stream : Yes
Defeat audio cache      : Yes
Make use of C2 pointers : No
Read offset correction                      : 6
Overread into Lead-In and Lead-Out          : No
Fill up missing offset samples with silence : Yes
Delete leading and trailing silent blocks   : No
Null samples used in CRC calculations       : Yes
Used interface                              : Native Win32 interface for Win NT & 2000
Gap handling                                : Appended to previous track
Used output format              : User Defined Encoder
Selected bitrate                : 320 kBit/s
Quality                         : High
Add ID3 tag                     : No
Command line compressor         : C:\Program Files (x86)\FLAC\flac.exe
Additional command line options : -V -8 -T "artist=%a" -T "title=%t" -T "album=%g" -T "date=%y" -T "tracknumber=%n" -T "genre=%m" %s
TOC of the extracted CD
     Track |   Start  |  Length  | Start sector | End sector
    ---------------------------------------------------------
        1  |  0:00.00 |  2:47.64 |         0    |    12588
        2  |  2:47.64 |  3:08.44 |     12589    |    26732
        3  |  5:56.33 |  3:27.70 |     26733    |    42327
        4  |  9:24.28 |  3:15.21 |     42328    |    56973
        5  | 12:39.49 |  3:08.00 |     56974    |    71073
        6  | 15:47.49 |  5:37.22 |     71074    |    96370
        7  | 21:24.71 |  4:46.28 |     96371    |   117848
        8  | 26:11.24 |  3:49.74 |    117849    |   135097
        9  | 30:01.23 |  6:38.58 |    135098    |   165005
       10  | 36:40.06 |  4:25.09 |    165006    |   184889
Track  1
     Filename C:\Music\Angelspit - Nurse Grenade [FLAC]\01 - 01. Maggot.wav
     Pre-gap length  0:00:02.00
     Peak level 100.0 %
     Track quality 100.0 %
     Test CRC 8C18F653
     Copy CRC 8C18F653
     Track not present in AccurateRip database
     Copy OK
Track  2
     Filename C:\Music\Angelspit - Nurse Grenade [FLAC]\02 - 02. Fuck Fashion.wav
     Pre-gap length  0:00:02.00
     Peak level 100.0 %
     Track quality 100.0 %
     Test CRC 787FBD36
     Copy CRC 787FBD36
     Track not present in AccurateRip database
     Copy OK
Track  3
     Filename C:\Music\Angelspit - Nurse Grenade [FLAC]\03 - 03. Head Kult.wav
     Pre-gap length  0:00:02.00
     Peak level 100.0 %
     Track quality 100.0 %
     Test CRC EF987AED
     Copy CRC EF987AED
     Track not present in AccurateRip database
     Copy OK
Track  4
     Filename C:\Music\Angelspit - Nurse Grenade [FLAC]\04 - 04. Infect.wav
     Pre-gap length  0:00:02.00
     Peak level 100.0 %
     Track quality 100.0 %
     Test CRC 233B63D4
     Copy CRC 233B63D4
     Track not present in AccurateRip database
     Copy OK
Track  5
     Filename C:\Music\Angelspit - Nurse Grenade [FLAC]\05 - 05. Meat.wav
     Pre-gap length  0:00:02.00
     Peak level 100.0 %
     Track quality 100.0 %
     Test CRC 70AD9429
     Copy CRC 70AD9429
     Track not present in AccurateRip database
     Copy OK
Track  6
     Filename C:\Music\Angelspit - Nurse Grenade [FLAC]\06 - 06. Nurse Grenade.wav
     Pre-gap length  0:00:02.00
     Peak level 100.0 %
     Track quality 100.0 %
     Test CRC 768D1767
     Copy CRC 768D1767
     Track not present in AccurateRip database
     Copy OK
Track  7
     Filename C:\Music\Angelspit - Nurse Grenade [FLAC]\07 - 07. Headfuck (Head Kult Remix).wav
     Pre-gap length  0:00:02.00
     Peak level 100.0 %
     Track quality 100.0 %
     Test CRC 7913894F
     Copy CRC 7913894F
     Track not present in AccurateRip database
     Copy OK
Track  8
     Filename C:\Music\Angelspit - Nurse Grenade [FLAC]\08 - 08. Psychic Vampire (Remix).wav
     Pre-gap length  0:00:02.00
     Peak level 100.0 %
     Track quality 100.0 %
     Test CRC 051D0C76
     Copy CRC 051D0C76
     Track not present in AccurateRip database
     Copy OK
Track  9
     Filename C:\Music\Angelspit - Nurse Grenade [FLAC]\09 - 09. I Feel Disease (Remix).wav
     Pre-gap length  0:00:02.00
     Peak level 100.0 %
     Track quality 99.9 %
     Test CRC EE7793AD
     Copy CRC EE7793AD
     Track not present in AccurateRip database
     Copy OK
Track 10
     Filename C:\Music\Angelspit - Nurse Grenade [FLAC]\10 - 10. Shitfed (Spoon Fed Remix).wav
     Pre-gap length  0:00:02.00
     Peak level 100.0 %
     Track quality 100.0 %
     Test CRC 9000EB85
     Copy CRC 9000EB85
     Track not present in AccurateRip database
     Copy OK
None of the tracks are present in the AccurateRip database
No errors occurred
End of status report
Код:
REM DISCID 8A09A10A
REM COMMENT "ExactAudioCopy v0.99pb5"
PERFORMER "Angelspit"
TITLE "Nurse Grenade"
FILE "\01 - 01. Maggot.wav" WAVE
  TRACK 01 AUDIO
    TITLE "01. Maggot"
    PERFORMER "Angelspit"
    INDEX 01 00:00:00
  TRACK 02 AUDIO
    TITLE "02. Fuck Fashion"
    PERFORMER "Angelspit"
    INDEX 00 02:45:64
FILE "\02 - 02. Fuck Fashion.wav" WAVE
    INDEX 01 00:00:00
  TRACK 03 AUDIO
    TITLE "03. Head Kult"
    PERFORMER "Angelspit"
    INDEX 00 03:06:44
FILE "\03 - 03. Head Kult.wav" WAVE
    INDEX 01 00:00:00
  TRACK 04 AUDIO
    TITLE "04. Infect"
    PERFORMER "Angelspit"
    INDEX 00 03:25:70
FILE "\04 - 04. Infect.wav" WAVE
    INDEX 01 00:00:00
  TRACK 05 AUDIO
    TITLE "05. Meat"
    PERFORMER "Angelspit"
    INDEX 00 03:13:21
FILE "\05 - 05. Meat.wav" WAVE
    INDEX 01 00:00:00
  TRACK 06 AUDIO
    TITLE "06. Nurse Grenade"
    PERFORMER "Angelspit"
    INDEX 00 03:06:00
FILE "\06 - 06. Nurse Grenade.wav" WAVE
    INDEX 01 00:00:00
  TRACK 07 AUDIO
    TITLE "07. Headfuck (Head Kult Remix)"
    PERFORMER "Angelspit"
    INDEX 00 05:35:22
FILE "\07 - 07. Headfuck (Head Kult Remix).wav" WAVE
    INDEX 01 00:00:00
  TRACK 08 AUDIO
    TITLE "08. Psychic Vampire (Remix)"
    PERFORMER "Angelspit"
    INDEX 00 04:44:28
FILE "\08 - 08. Psychic Vampire (Remix).wav" WAVE
    INDEX 01 00:00:00
  TRACK 09 AUDIO
    TITLE "09. I Feel Disease (Remix)"
    PERFORMER "Angelspit"
    INDEX 00 03:47:74
FILE "\09 - 09. I Feel Disease (Remix).wav" WAVE
    INDEX 01 00:00:00
  TRACK 10 AUDIO
    TITLE "10. Shitfed (Spoon Fed Remix)"
    PERFORMER "Angelspit"
    INDEX 00 06:36:58
FILE "\10 - 10. Shitfed (Spoon Fed Remix).wav" WAVE
    INDEX 01 00:00:00
Правила, инструкции, FAQ!!!
Торрент  Добавлен [26 июн 2020, 17:31] Скачать торрент Магнет ссылка
Скачать торрент
[ Размер 13.75 КБ / Просмотров 13 ]

Статус
Проверен 
 
Размер  320.9 МБ
Приватный: Нет (DHT включён)
.torrent скачан  0
 


     Отправить личное сообщение
   
Страница 1 из 1
Показать сообщения за:  Поле сортировки  
Начать новую тему Ответить на тему


Сейчас этот форум просматривают: нет зарегистрированных пользователей и гости: 0


Вы не можете начинать темы
Вы не можете отвечать на сообщения
Вы не можете редактировать свои сообщения
Вы не можете удалять свои сообщения
Вы не можете добавлять вложения

Перейти:  
cron