Начать новую тему Ответить на тему
Статистика раздачи
Размер: 397.4 МБ | Добавлен: 26 июн 2020, 17:31 | Скачали: 0
Сидеров: 0  [0 байт/сек]    Личеров: 1  [0 байт/сек]
Пред. тема | След. тема 

Автор
Сообщение

СообщениеДобавлено: 26 июн 2020, 17:31 

Ответить с цитатой 

Angelspit / Carbon Beauty
Жанр: Electro-Industrial / Cyberpunk
Носитель: CD
Страна-производитель диска (релиза): US
Год издания: 2011
Издатель (лейбл): Metropolis
Номер по каталогу: MET-703
Страна исполнителя (группы): Australia
Аудиокодек: FLAC (*.flac)
Тип рипа: tracks+.cue
Битрейт аудио: lossless
Продолжительность: 00:52:55
Источник (релизер): What.CD
Наличие сканов в содержимом раздачи: нет
Треклист:
01. Making Money (Angelspit Remix)
02. Cold Hard Cash (Dope Stars Inc. Remix)
03. Fuck The Revolution (Megajive Remix)
04. Glitchbomb (Unreleased Angelspit track)
05. Cold Hard Cash (AoTU Remix)
06. Channel Hell (Deathproof Remix).
07. Hyperlust (tweaker Remix)
08. Like It? Lick it! (Unreleased Angelspit track)
09. Princess Chaos (Metafakt Remix)
10. Fuck The Revolution (16 Volt Remix)
11. Ditch The Rest (Ego Likeness Remix)
12. Toxic Girl (Unreleased Angelspit track)
13. Fink (Baal Remix)
Код:
Exact Audio Copy V1.0 beta 2 from 29. April 2011
EAC extraction logfile from 21. September 2011, 19:24
Angelspit / Carbon Beauty
Used drive  : PIONEER DVD-RW  DVR-111D   Adapter: 1  ID: 0
Read mode               : Secure
Utilize accurate stream : Yes
Defeat audio cache      : Yes
Make use of C2 pointers : No
Read offset correction                      : 48
Overread into Lead-In and Lead-Out          : No
Fill up missing offset samples with silence : Yes
Delete leading and trailing silent blocks   : No
Null samples used in CRC calculations       : Yes
Used interface                              : Native Win32 interface for Win NT & 2000
Gap handling                                : Appended to previous track
Used output format              : User Defined Encoder
Selected bitrate                : 768 kBit/s
Quality                         : High
Add ID3 tag                     : No
Command line compressor         : C:\Program Files\Exact Audio Copy\FLAC\FLAC.EXE
Additional command line options : -8 -V -T "ARTIST=%artist%" -T "TITLE=%title%" -T "ALBUM=%albumtitle%" -T "DATE=%year%" -T "TRACKNUMBER=%tracknr%" -T "GENRE=%genre%" -T "PERFORMER=%albuminterpret%" -T "COMPOSER=%composer%" %haslyrics%--tag-from-file=LYRICS
TOC of the extracted CD
     Track |   Start  |  Length  | Start sector | End sector
    ---------------------------------------------------------
        1  |  0:00.00 |  4:37.10 |         0    |    20784
        2  |  4:37.10 |  3:59.58 |     20785    |    38767
        3  |  8:36.68 |  3:50.39 |     38768    |    56056
        4  | 12:27.32 |  3:22.30 |     56057    |    71236
        5  | 15:49.62 |  4:14.07 |     71237    |    90293
        6  | 20:03.69 |  3:33.62 |     90294    |   106330
        7  | 23:37.56 |  3:56.47 |    106331    |   124077
        8  | 27:34.28 |  2:34.39 |    124078    |   135666
        9  | 30:08.67 |  5:23.37 |    135667    |   159928
       10  | 35:32.29 |  4:43.22 |    159929    |   181175
       11  | 40:15.51 |  4:37.28 |    181176    |   201978
       12  | 44:53.04 |  3:38.46 |    201979    |   218374
       13  | 48:31.50 |  4:24.10 |    218375    |   238184
Track  1
     Filename C:\rips\01 - Making Money (Angelspit Remix).wav
     Pre-gap length  0:00:02.00
     Peak level 100.0 %
     Extraction speed 4.5 X
     Track quality 100.0 %
     Test CRC 2B818652
     Copy CRC 2B818652
     Track not present in AccurateRip database
     Copy OK
Track  2
     Filename C:\rips\02 - Cold Hard Cash (Dope Stars Inc. Remix).wav
     Peak level 100.0 %
     Extraction speed 4.9 X
     Track quality 100.0 %
     Test CRC 6C277F99
     Copy CRC 6C277F99
     Track not present in AccurateRip database
     Copy OK
Track  3
     Filename C:\rips\03 - Fuck The Revolution (Megajive Remix).wav
     Peak level 100.0 %
     Extraction speed 5.2 X
     Track quality 100.0 %
     Test CRC CC290F1C
     Copy CRC CC290F1C
     Track not present in AccurateRip database
     Copy OK
Track  4
     Filename C:\rips\04 - Glitchbomb.wav
     Peak level 100.0 %
     Extraction speed 4.8 X
     Track quality 99.9 %
     Test CRC 3189913F
     Copy CRC 3189913F
     Track not present in AccurateRip database
     Copy OK
Track  5
     Filename C:\rips\05 - Cold Hard Cash (AoTU Remix).wav
     Peak level 100.0 %
     Extraction speed 6.0 X
     Track quality 100.0 %
     Test CRC 9C44AFB5
     Copy CRC 9C44AFB5
     Track not present in AccurateRip database
     Copy OK
Track  6
     Filename C:\rips\06 - Channel Hell (Deathproof Remix).wav
     Peak level 100.0 %
     Extraction speed 6.2 X
     Track quality 100.0 %
     Test CRC DB9F0B76
     Copy CRC DB9F0B76
     Track not present in AccurateRip database
     Copy OK
Track  7
     Filename C:\rips\07 - Hyperlust (tweaker Remix).wav
     Peak level 100.0 %
     Extraction speed 5.8 X
     Track quality 99.9 %
     Test CRC A3256A42
     Copy CRC A3256A42
     Track not present in AccurateRip database
     Copy OK
Track  8
     Filename C:\rips\08 - Like It Lick it!.wav
     Peak level 100.0 %
     Extraction speed 6.3 X
     Track quality 100.0 %
     Test CRC E973D216
     Copy CRC E973D216
     Track not present in AccurateRip database
     Copy OK
Track  9
     Filename C:\rips\09 - Princess Chaos (Metafakt Remix).wav
     Peak level 100.0 %
     Extraction speed 7.3 X
     Track quality 100.0 %
     Test CRC F166778B
     Copy CRC F166778B
     Track not present in AccurateRip database
     Copy OK
Track 10
     Filename C:\rips\10 - Fuck The Revolution (16 Volt Remix).wav
     Peak level 100.0 %
     Extraction speed 7.5 X
     Track quality 100.0 %
     Test CRC E6D036CC
     Copy CRC E6D036CC
     Track not present in AccurateRip database
     Copy OK
Track 11
     Filename C:\rips\11 - Ditch The Rest (Ego Likeness Remix).wav
     Peak level 100.0 %
     Extraction speed 7.0 X
     Track quality 99.9 %
     Test CRC B3F34003
     Copy CRC B3F34003
     Track not present in AccurateRip database
     Copy OK
Track 12
     Filename C:\rips\12 - Toxic Girl.wav
     Peak level 100.0 %
     Extraction speed 7.8 X
     Track quality 100.0 %
     Test CRC B36AEEBB
     Copy CRC B36AEEBB
     Track not present in AccurateRip database
     Copy OK
Track 13
     Filename C:\rips\13 - Fink (Baal Remix).wav
     Peak level 100.0 %
     Extraction speed 8.1 X
     Track quality 100.0 %
     Test CRC 7F8A839D
     Copy CRC 7F8A839D
     Track not present in AccurateRip database
     Copy OK
None of the tracks are present in the AccurateRip database
No errors occurred
End of status report
==== Log checksum DA96ACB26E5E079D51608DE58319F10A9468F4C32EB2B0BADEF3E2ED88FC98EF ====
Код:
REM GENRE Industrial
REM DATE 2011
REM DISCID B50C670D
REM COMMENT "ExactAudioCopy v1.0b2"
CATALOG 0782388070324
PERFORMER "Angelspit"
TITLE "Carbon Beauty"
FILE "01 - Making Money (Angelspit Remix).wav" WAVE
  TRACK 01 AUDIO
    TITLE "Making Money (Angelspit Remix)"
    PERFORMER "Angelspit"
    ISRC US57M1070301
    INDEX 01 00:00:00
FILE "02 - Cold Hard Cash (Dope Stars Inc. Remix).wav" WAVE
  TRACK 02 AUDIO
    TITLE "Cold Hard Cash (Dope Stars Inc. Remix)"
    PERFORMER "Angelspit"
    ISRC US57M1070302
    INDEX 01 00:00:00
FILE "03 - Fuck The Revolution (Megajive Remix).wav" WAVE
  TRACK 03 AUDIO
    TITLE "Fuck The Revolution (Megajive Remix)"
    PERFORMER "Angelspit"
    ISRC US57M1070303
    INDEX 01 00:00:00
FILE "04 - Glitchbomb.wav" WAVE
  TRACK 04 AUDIO
    TITLE "Glitchbomb"
    PERFORMER "Angelspit"
    ISRC US57M1070304
    INDEX 01 00:00:00
FILE "05 - Cold Hard Cash (AoTU Remix).wav" WAVE
  TRACK 05 AUDIO
    TITLE "Cold Hard Cash (AoTU Remix)"
    PERFORMER "Angelspit"
    ISRC US57M1070305
    INDEX 01 00:00:00
FILE "06 - Channel Hell (Deathproof Remix).wav" WAVE
  TRACK 06 AUDIO
    TITLE "Channel Hell (Deathproof Remix)"
    PERFORMER "Angelspit"
    ISRC US57M1070306
    INDEX 01 00:00:00
FILE "07 - Hyperlust (tweaker Remix).wav" WAVE
  TRACK 07 AUDIO
    TITLE "Hyperlust (tweaker Remix)"
    PERFORMER "Angelspit"
    ISRC US57M1070307
    INDEX 01 00:00:00
FILE "08 - Like It Lick it!.wav" WAVE
  TRACK 08 AUDIO
    TITLE "Like It? Lick it!"
    PERFORMER "Angelspit"
    ISRC US57M1070308
    INDEX 01 00:00:00
FILE "09 - Princess Chaos (Metafakt Remix).wav" WAVE
  TRACK 09 AUDIO
    TITLE "Princess Chaos (Metafakt Remix)"
    PERFORMER "Angelspit"
    ISRC US57M1070309
    INDEX 01 00:00:00
FILE "10 - Fuck The Revolution (16 Volt Remix).wav" WAVE
  TRACK 10 AUDIO
    TITLE "Fuck The Revolution (16 Volt Remix)"
    PERFORMER "Angelspit"
    ISRC US57M1070310
    INDEX 01 00:00:00
FILE "11 - Ditch The Rest (Ego Likeness Remix).wav" WAVE
  TRACK 11 AUDIO
    TITLE "Ditch The Rest (Ego Likeness Remix)"
    PERFORMER "Angelspit"
    ISRC US57M1070311
    INDEX 01 00:00:00
FILE "12 - Toxic Girl.wav" WAVE
  TRACK 12 AUDIO
    TITLE "Toxic Girl"
    PERFORMER "Angelspit"
    ISRC US57M1070312
    INDEX 01 00:00:00
FILE "13 - Fink (Baal Remix).wav" WAVE
  TRACK 13 AUDIO
    TITLE "Fink (Baal Remix)"
    PERFORMER "Angelspit"
    ISRC US57M1070313
    INDEX 01 00:00:00
Правила, инструкции, FAQ!!!
Торрент  Добавлен [26 июн 2020, 17:31] Скачать торрент Магнет ссылка
Скачать торрент
[ Размер 17.54 КБ / Просмотров 13 ]

Статус
Проверен 
 
Размер  397.4 МБ
Приватный: Нет (DHT включён)
.torrent скачан  0
 


     Отправить личное сообщение
   
Страница 1 из 1
Показать сообщения за:  Поле сортировки  
Начать новую тему Ответить на тему


Сейчас этот форум просматривают: нет зарегистрированных пользователей и гости: 0


Вы не можете начинать темы
Вы не можете отвечать на сообщения
Вы не можете редактировать свои сообщения
Вы не можете удалять свои сообщения
Вы не можете добавлять вложения

Перейти:  
cron