Начать новую тему Ответить на тему
Статистика раздачи
Размер: 433.35 МБ | Добавлен: 26 июн 2020, 17:38 | Скачали: 0
Сидеров: 0  [0 байт/сек]    Личеров: 0  [0 байт/сек]
Пред. тема | След. тема 

Автор
Сообщение

СообщениеДобавлено: 26 июн 2020, 17:38 

Ответить с цитатой 

Angelspit / Black Kingdom Red Kingdom
Жанр: Electro-Industrial / Cyberpunk
Носитель: CD
Страна-производитель диска (релиза): Australia
Год издания: 2009
Издатель (лейбл): Black Pill Red Pill
Номер по каталогу: 01
Страна исполнителя (группы): Australia
Аудиокодек: FLAC (*.flac)
Тип рипа: tracks+.cue
Битрейт аудио: lossless
Продолжительность: 00:56:06
Источник (релизер): What.CD
Наличие сканов в содержимом раздачи: нет
Треклист:
01 Kill Kitty (KMFDM Remix) 03:29
02 Jugular (Alec Empire Remix) 04:03
03 Grind (Ayria Remix) 03:53
04 Skinny Little Bitch (Implant Remix) 04:10
05 Girl Poison (Ego Likeness Remix) 04:42
06 Devilicious (Dave Foreman Remix) 04:20
07 Kill Kitty (The Mercy Cage Remix) 04:09
08 Skinny Little Bitch (Vo1d Remix) 05:23
09 Girl Poison (I-Scintilla Remix) 04:04
10 Devilicious (A Is For Arsenic Remix) 03:43
11 Red (The Erektor Remix) 05:14
12 Shaved Monkey (Left Spine Down Remix) 03:56
13 Jugular (Baal Remix) 05:01
Код:
X Lossless Decoder version 20110924 (136.3)
XLD extraction logfile from 2011-09-30 17:57:51 -0700
Angelspit / Black Kingdom Red Kingdom
Used drive : PLEXTOR BDDVDR PX-B310U (revision 1.07)
Ripper mode             : CDParanoia III 10.2
Disable audio cache     : OK for the drive with a cache less than 2750KiB
Make use of C2 pointers : NO
Read offset correction  : 6
Max retry count         : 100
Gap status              : Analyzed, Appended
TOC of the extracted CD
     Track |   Start  |  Length  | Start sector | End sector
    ---------------------------------------------------------
        1  | 00:00:00 | 03:28:50 |         0    |    15649
        2  | 03:28:50 | 04:02:63 |     15650    |    33862
        3  | 07:31:38 | 03:53:20 |     33863    |    51357
        4  | 11:24:58 | 04:10:03 |     51358    |    70110
        5  | 15:34:61 | 04:41:64 |     70111    |    91249
        6  | 20:16:50 | 04:20:23 |     91250    |   110772
        7  | 24:36:73 | 04:08:67 |    110773    |   129439
        8  | 28:45:65 | 05:22:62 |    129440    |   153651
        9  | 34:08:52 | 04:04:32 |    153652    |   171983
       10  | 38:13:09 | 03:43:31 |    171984    |   188739
       11  | 41:56:40 | 05:13:57 |    188740    |   212271
       12  | 47:10:22 | 03:55:40 |    212272    |   229936
       13  | 51:05:62 | 05:00:37 |    229937    |   252473
AccurateRip Summary
    Track 01 : OK (confidence 1)
    Track 02 : OK (confidence 1)
    Track 03 : OK (confidence 1)
    Track 04 : OK (confidence 1)
    Track 05 : OK (confidence 1)
    Track 06 : OK (confidence 1)
    Track 07 : OK (confidence 1)
    Track 08 : OK (confidence 1)
    Track 09 : OK (confidence 1)
    Track 10 : OK (confidence 1)
    Track 11 : OK (confidence 1)
    Track 12 : OK (confidence 1)
    Track 13 : OK (confidence 1)
        ->All tracks accurately ripped.
All Tracks
    Album gain             : -9.04 dB
    Peak                   : 0.999359
    Statistics
        Read error                           : 0
        Skipped (treated as error)           : 0
        Edge jitter error (maybe fixed)      : 0
        Atom jitter error (maybe fixed)      : 0
        Drift error (maybe fixed)            : 0
        Dropped bytes error (maybe fixed)    : 0
        Duplicated bytes error (maybe fixed) : 0
Track 01
    Filename : /rips/Angelspit - Black Kingdom Red Kingdom (2009) [FLAC]/01 - Angelspit - Kill Kitty (KMFDM remix).flac
    Pre-gap length : 00:02:00
    Track gain             : -9.73 dB
    Peak                   : 0.999359
    CRC32 hash (test run)  : BA0FDC01
    CRC32 hash             : BA0FDC01
    CRC32 hash (skip zero) : 0129F5B8
    AccurateRip signature  : C7A91749
        ->Accurately ripped! (confidence 1)
    Statistics
        Read error                           : 0
        Skipped (treated as error)           : 0
        Edge jitter error (maybe fixed)      : 0
        Atom jitter error (maybe fixed)      : 0
        Drift error (maybe fixed)            : 0
        Dropped bytes error (maybe fixed)    : 0
        Duplicated bytes error (maybe fixed) : 0
        Inconsistency in error sectors       : 0
Track 02
    Filename : /rips/Angelspit - Black Kingdom Red Kingdom (2009) [FLAC]/02 - Angelspit - Jugular (Alec Empire remix).flac
    Track gain             : -9.50 dB
    Peak                   : 0.999268
    CRC32 hash (test run)  : 673D4116
    CRC32 hash             : 673D4116
    CRC32 hash (skip zero) : 99DAC875
    AccurateRip signature  : 7A804587
        ->Accurately ripped! (confidence 1)
    Statistics
        Read error                           : 0
        Skipped (treated as error)           : 0
        Edge jitter error (maybe fixed)      : 0
        Atom jitter error (maybe fixed)      : 0
        Drift error (maybe fixed)            : 0
        Dropped bytes error (maybe fixed)    : 0
        Duplicated bytes error (maybe fixed) : 0
        Inconsistency in error sectors       : 0
Track 03
    Filename : /rips/Angelspit - Black Kingdom Red Kingdom (2009) [FLAC]/03 - Angelspit - Grind (Ayria remix).flac
    Track gain             : -7.55 dB
    Peak                   : 0.999268
    CRC32 hash (test run)  : 6A6E9CBD
    CRC32 hash             : 6A6E9CBD
    CRC32 hash (skip zero) : C567A889
    AccurateRip signature  : 52B1A9BE
        ->Accurately ripped! (confidence 1)
    Statistics
        Read error                           : 0
        Skipped (treated as error)           : 0
        Edge jitter error (maybe fixed)      : 0
        Atom jitter error (maybe fixed)      : 0
        Drift error (maybe fixed)            : 0
        Dropped bytes error (maybe fixed)    : 0
        Duplicated bytes error (maybe fixed) : 0
        Inconsistency in error sectors       : 0
Track 04
    Filename : /rips/Angelspit - Black Kingdom Red Kingdom (2009) [FLAC]/04 - Angelspit - Skinny Little Bitch (Implant remix).flac
    Track gain             : -10.43 dB
    Peak                   : 0.999329
    CRC32 hash (test run)  : FA8CDE02
    CRC32 hash             : FA8CDE02
    CRC32 hash (skip zero) : 6076BBB6
    AccurateRip signature  : D2EAB04E
        ->Accurately ripped! (confidence 1)
    Statistics
        Read error                           : 0
        Skipped (treated as error)           : 0
        Edge jitter error (maybe fixed)      : 0
        Atom jitter error (maybe fixed)      : 0
        Drift error (maybe fixed)            : 0
        Dropped bytes error (maybe fixed)    : 0
        Duplicated bytes error (maybe fixed) : 0
        Inconsistency in error sectors       : 0
Track 05
    Filename : /rips/Angelspit - Black Kingdom Red Kingdom (2009) [FLAC]/05 - Angelspit - Girl Poison (Ego Likeness remix).flac
    Track gain             : -8.55 dB
    Peak                   : 0.999298
    CRC32 hash (test run)  : 79C2508D
    CRC32 hash             : 79C2508D
    CRC32 hash (skip zero) : 51ED9A0F
    AccurateRip signature  : 3358DA8D
        ->Accurately ripped! (confidence 1)
    Statistics
        Read error                           : 0
        Skipped (treated as error)           : 0
        Edge jitter error (maybe fixed)      : 0
        Atom jitter error (maybe fixed)      : 0
        Drift error (maybe fixed)            : 0
        Dropped bytes error (maybe fixed)    : 0
        Duplicated bytes error (maybe fixed) : 0
        Inconsistency in error sectors       : 0
Track 06
    Filename : /rips/Angelspit - Black Kingdom Red Kingdom (2009) [FLAC]/06 - Angelspit - Devilicious (Dave Foreman remix).flac
    Track gain             : -7.32 dB
    Peak                   : 0.999298
    CRC32 hash (test run)  : 3431D13B
    CRC32 hash             : 3431D13B
    CRC32 hash (skip zero) : 10DFBA1F
    AccurateRip signature  : AC920FDE
        ->Accurately ripped! (confidence 1)
    Statistics
        Read error                           : 0
        Skipped (treated as error)           : 0
        Edge jitter error (maybe fixed)      : 0
        Atom jitter error (maybe fixed)      : 0
        Drift error (maybe fixed)            : 0
        Dropped bytes error (maybe fixed)    : 0
        Duplicated bytes error (maybe fixed) : 0
        Inconsistency in error sectors       : 0
Track 07
    Filename : /rips/Angelspit - Black Kingdom Red Kingdom (2009) [FLAC]/07 - Angelspit - Kill Kitty (The Mercy Cage remix).flac
    Track gain             : -8.99 dB
    Peak                   : 0.999329
    CRC32 hash (test run)  : C4D8E210
    CRC32 hash             : C4D8E210
    CRC32 hash (skip zero) : F632E2D0
    AccurateRip signature  : 9D1B86D3
        ->Accurately ripped! (confidence 1)
    Statistics
        Read error                           : 0
        Skipped (treated as error)           : 0
        Edge jitter error (maybe fixed)      : 0
        Atom jitter error (maybe fixed)      : 0
        Drift error (maybe fixed)            : 0
        Dropped bytes error (maybe fixed)    : 0
        Duplicated bytes error (maybe fixed) : 0
        Inconsistency in error sectors       : 0
Track 08
    Filename : /rips/Angelspit - Black Kingdom Red Kingdom (2009) [FLAC]/08 - Angelspit - Skinny Little Bitch (Vo1d remix).flac
    Track gain             : -5.82 dB
    Peak                   : 0.999329
    CRC32 hash (test run)  : A2BF4A56
    CRC32 hash             : A2BF4A56
    CRC32 hash (skip zero) : 7833B7C1
    AccurateRip signature  : 5802A2E7
        ->Accurately ripped! (confidence 1)
    Statistics
        Read error                           : 0
        Skipped (treated as error)           : 0
        Edge jitter error (maybe fixed)      : 0
        Atom jitter error (maybe fixed)      : 0
        Drift error (maybe fixed)            : 0
        Dropped bytes error (maybe fixed)    : 0
        Duplicated bytes error (maybe fixed) : 0
        Inconsistency in error sectors       : 0
Track 09
    Filename : /rips/Angelspit - Black Kingdom Red Kingdom (2009) [FLAC]/09 - Angelspit - Girl Poison (I:Scintilla remix).flac
    Track gain             : -8.69 dB
    Peak                   : 0.999329
    CRC32 hash (test run)  : D96ABD47
    CRC32 hash             : D96ABD47
    CRC32 hash (skip zero) : 92F00102
    AccurateRip signature  : 0F115860
        ->Accurately ripped! (confidence 1)
    Statistics
        Read error                           : 0
        Skipped (treated as error)           : 0
        Edge jitter error (maybe fixed)      : 0
        Atom jitter error (maybe fixed)      : 0
        Drift error (maybe fixed)            : 0
        Dropped bytes error (maybe fixed)    : 0
        Duplicated bytes error (maybe fixed) : 0
        Inconsistency in error sectors       : 0
Track 10
    Filename : /rips/Angelspit - Black Kingdom Red Kingdom (2009) [FLAC]/10 - Angelspit - Devilicious (A Is for Arsenic remix).flac
    Track gain             : -8.27 dB
    Peak                   : 0.999298
    CRC32 hash (test run)  : 9B02162E
    CRC32 hash             : 9B02162E
    CRC32 hash (skip zero) : ADED9456
    AccurateRip signature  : 5D4C728C
        ->Accurately ripped! (confidence 1)
    Statistics
        Read error                           : 0
        Skipped (treated as error)           : 0
        Edge jitter error (maybe fixed)      : 0
        Atom jitter error (maybe fixed)      : 0
        Drift error (maybe fixed)            : 0
        Dropped bytes error (maybe fixed)    : 0
        Duplicated bytes error (maybe fixed) : 0
        Inconsistency in error sectors       : 0
Track 11
    Filename : /rips/Angelspit - Black Kingdom Red Kingdom (2009) [FLAC]/11 - Angelspit - Red (The Erektor remix).flac
    Track gain             : -8.75 dB
    Peak                   : 0.999298
    CRC32 hash (test run)  : 4F4B23BA
    CRC32 hash             : 4F4B23BA
    CRC32 hash (skip zero) : 4CC32282
    AccurateRip signature  : 73B5B694
        ->Accurately ripped! (confidence 1)
    Statistics
        Read error                           : 0
        Skipped (treated as error)           : 0
        Edge jitter error (maybe fixed)      : 0
        Atom jitter error (maybe fixed)      : 0
        Drift error (maybe fixed)            : 0
        Dropped bytes error (maybe fixed)    : 0
        Duplicated bytes error (maybe fixed) : 0
        Inconsistency in error sectors       : 0
Track 12
    Filename : /rips/Angelspit - Black Kingdom Red Kingdom (2009) [FLAC]/12 - Angelspit - Shaved Monkey (Left Spine Down remix).flac
    Track gain             : -8.60 dB
    Peak                   : 0.999268
    CRC32 hash (test run)  : AF5C23E2
    CRC32 hash             : AF5C23E2
    CRC32 hash (skip zero) : AAB25AD6
    AccurateRip signature  : 7667E1B7
        ->Accurately ripped! (confidence 1)
    Statistics
        Read error                           : 0
        Skipped (treated as error)           : 0
        Edge jitter error (maybe fixed)      : 0
        Atom jitter error (maybe fixed)      : 0
        Drift error (maybe fixed)            : 0
        Dropped bytes error (maybe fixed)    : 0
        Duplicated bytes error (maybe fixed) : 0
        Inconsistency in error sectors       : 0
Track 13
    Filename : /rips/Angelspit - Black Kingdom Red Kingdom (2009) [FLAC]/13 - Angelspit - Jugular (BAAL remix).flac
    Track gain             : -9.39 dB
    Peak                   : 0.999359
    CRC32 hash (test run)  : E4D76D96
    CRC32 hash             : E4D76D96
    CRC32 hash (skip zero) : E7BA62EB
    AccurateRip signature  : 841A00FC
        ->Accurately ripped! (confidence 1)
    Statistics
        Read error                           : 0
        Skipped (treated as error)           : 0
        Edge jitter error (maybe fixed)      : 0
        Atom jitter error (maybe fixed)      : 0
        Drift error (maybe fixed)            : 0
        Dropped bytes error (maybe fixed)    : 0
        Duplicated bytes error (maybe fixed) : 0
        Inconsistency in error sectors       : 0
No errors occurred
End of status report
Код:
TITLE "Black Kingdom Red Kingdom"
PERFORMER "Angelspit"
REM GENRE "Other"
REM DATE "2009"
REM DISCID B00D260D
REM REPLAYGAIN_ALBUM_GAIN -9.04 dB
REM REPLAYGAIN_ALBUM_PEAK 0.999359
FILE "01 - Angelspit - Kill Kitty (KMFDM remix).flac" WAVE
  TRACK 01 AUDIO
    TITLE "Kill Kitty (KMFDM remix)"
    ISRC VUA000900010
    REM REPLAYGAIN_TRACK_GAIN -9.73 dB
    REM REPLAYGAIN_TRACK_PEAK 0.999359
    INDEX 01 00:00:00
FILE "02 - Angelspit - Jugular (Alec Empire remix).flac" WAVE
  TRACK 02 AUDIO
    TITLE "Jugular (Alec Empire remix)"
    ISRC VUA000900010
    REM REPLAYGAIN_TRACK_GAIN -9.50 dB
    REM REPLAYGAIN_TRACK_PEAK 0.999268
    INDEX 01 00:00:00
FILE "03 - Angelspit - Grind (Ayria remix).flac" WAVE
  TRACK 03 AUDIO
    TITLE "Grind (Ayria remix)"
    ISRC VUA000900012
    REM REPLAYGAIN_TRACK_GAIN -7.55 dB
    REM REPLAYGAIN_TRACK_PEAK 0.999268
    INDEX 01 00:00:00
FILE "04 - Angelspit - Skinny Little Bitch (Implant remix).flac" WAVE
  TRACK 04 AUDIO
    TITLE "Skinny Little Bitch (Implant remix)"
    ISRC VUA000900013
    REM REPLAYGAIN_TRACK_GAIN -10.43 dB
    REM REPLAYGAIN_TRACK_PEAK 0.999329
    INDEX 01 00:00:00
FILE "05 - Angelspit - Girl Poison (Ego Likeness remix).flac" WAVE
  TRACK 05 AUDIO
    TITLE "Girl Poison (Ego Likeness remix)"
    ISRC VUA000900014
    REM REPLAYGAIN_TRACK_GAIN -8.55 dB
    REM REPLAYGAIN_TRACK_PEAK 0.999298
    INDEX 01 00:00:00
FILE "06 - Angelspit - Devilicious (Dave Foreman remix).flac" WAVE
  TRACK 06 AUDIO
    TITLE "Devilicious (Dave Foreman remix)"
    ISRC VUA000900015
    REM REPLAYGAIN_TRACK_GAIN -7.32 dB
    REM REPLAYGAIN_TRACK_PEAK 0.999298
    INDEX 01 00:00:00
FILE "07 - Angelspit - Kill Kitty (The Mercy Cage remix).flac" WAVE
  TRACK 07 AUDIO
    TITLE "Kill Kitty (The Mercy Cage remix)"
    ISRC VUA000900016
    REM REPLAYGAIN_TRACK_GAIN -8.99 dB
    REM REPLAYGAIN_TRACK_PEAK 0.999329
    INDEX 01 00:00:00
FILE "08 - Angelspit - Skinny Little Bitch (Vo1d remix).flac" WAVE
  TRACK 08 AUDIO
    TITLE "Skinny Little Bitch (Vo1d remix)"
    ISRC VUA000900017
    REM REPLAYGAIN_TRACK_GAIN -5.82 dB
    REM REPLAYGAIN_TRACK_PEAK 0.999329
    INDEX 01 00:00:00
FILE "09 - Angelspit - Girl Poison (I:Scintilla remix).flac" WAVE
  TRACK 09 AUDIO
    TITLE "Girl Poison (I:Scintilla remix)"
    ISRC VUA000900018
    REM REPLAYGAIN_TRACK_GAIN -8.69 dB
    REM REPLAYGAIN_TRACK_PEAK 0.999329
    INDEX 01 00:00:00
FILE "10 - Angelspit - Devilicious (A Is for Arsenic remix).flac" WAVE
  TRACK 10 AUDIO
    TITLE "Devilicious (A Is for Arsenic remix)"
    ISRC VUA000900019
    REM REPLAYGAIN_TRACK_GAIN -8.27 dB
    REM REPLAYGAIN_TRACK_PEAK 0.999298
    INDEX 01 00:00:00
FILE "11 - Angelspit - Red (The Erektor remix).flac" WAVE
  TRACK 11 AUDIO
    TITLE "Red (The Erektor remix)"
    ISRC VUA000900020
    REM REPLAYGAIN_TRACK_GAIN -8.75 dB
    REM REPLAYGAIN_TRACK_PEAK 0.999298
    INDEX 01 00:00:00
FILE "12 - Angelspit - Shaved Monkey (Left Spine Down remix).flac" WAVE
  TRACK 12 AUDIO
    TITLE "Shaved Monkey (Left Spine Down remix)"
    ISRC VUA000900021
    REM REPLAYGAIN_TRACK_GAIN -8.60 dB
    REM REPLAYGAIN_TRACK_PEAK 0.999268
    INDEX 01 00:00:00
FILE "13 - Angelspit - Jugular (BAAL remix).flac" WAVE
  TRACK 13 AUDIO
    TITLE "Jugular (BAAL remix)"
    ISRC VUA000900022
    REM REPLAYGAIN_TRACK_GAIN -9.39 dB
    REM REPLAYGAIN_TRACK_PEAK 0.999359
    INDEX 01 00:00:00
Правила, инструкции, FAQ!!!
Торрент  Добавлен [26 июн 2020, 17:38] Скачать торрент Магнет ссылка
Скачать торрент
[ Размер 18.47 КБ / Просмотров 12 ]

Статус
Проверен 
 
Размер  433.35 МБ
Приватный: Нет (DHT включён)
.torrent скачан  0
 


     Отправить личное сообщение
   
Страница 1 из 1
Показать сообщения за:  Поле сортировки  
Начать новую тему Ответить на тему


Сейчас этот форум просматривают: нет зарегистрированных пользователей и гости: 0


Вы не можете начинать темы
Вы не можете отвечать на сообщения
Вы не можете редактировать свои сообщения
Вы не можете удалять свои сообщения
Вы не можете добавлять вложения

Перейти:  
cron