Начать новую тему Ответить на тему
Статистика раздачи
Размер: 364.56 МБ | Добавлен: 26 июн 2020, 17:15 | Скачали: 0
Сидеров: 0  [0 байт/сек]    Личеров: 0  [0 байт/сек]
Пред. тема | След. тема 

Автор
Сообщение

СообщениеДобавлено: 26 июн 2020, 17:15 

Ответить с цитатой 

Cyanide Regime - Visions Of Order
Жанр: Electro, Industrial
Год выпуска диска: 2007
Производитель диска: US
Аудио кодек: FLAC
Тип рипа: tracks+.cue
Продолжительность: 52:06
Трэклист:
Tracklist:
1 Rosarium 4:51
2 Vanquisher 4:51
3 Prevail 5:03
4 Die Bitch 4:27
5 Memorial 5:43
6 Imperio 2:00
7 Heartless 3:48
8 Crucificado 4:57
9 Apathy 4:43
10 The Threat 4:33
11 Revenge 5:30
12 Plegaria 1:41
Доп. информация: TEST & COPY с диска из личной коллекции. Сканы 600 dpi в комплекте.

Просьба скачавшим, перегрузить торрент-файл, небольшая ошибка, извините!
http://www.discogs.com/Cyanide-Regime-Visions-Of-Order/release/934795
Код:
Exact Audio Copy V0.99 prebeta 5 from 4. May 2009
EAC extraction logfile from 21. June 2010, 18:11
Cyanide Regime / Visions of Order
Used drive  : PIONEER DVD-RW  DVR-216D   Adapter: 2  ID: 3
Read mode               : Secure
Utilize accurate stream : Yes
Defeat audio cache      : Yes
Make use of C2 pointers : No
Read offset correction                      : 96
Overread into Lead-In and Lead-Out          : No
Fill up missing offset samples with silence : Yes
Delete leading and trailing silent blocks   : No
Null samples used in CRC calculations       : Yes
Used interface                              : Native Win32 interface for Win NT & 2000
Gap handling                                : Appended to previous track
Used output format              : User Defined Encoder
Selected bitrate                : 1024 kBit/s
Quality                         : High
Add ID3 tag                     : No
Command line compressor         : D:\Program Files\Exact Audio Copy 5\Flac\flac.exe
Additional command line options : -8 -V %s
TOC of the extracted CD
     Track |   Start  |  Length  | Start sector | End sector
    ---------------------------------------------------------
        1  |  0:00.00 |  4:51.49 |         0    |    21873
        2  |  4:51.49 |  4:51.38 |     21874    |    43736
        3  |  9:43.12 |  5:03.68 |     43737    |    66529
        4  | 14:47.05 |  4:27.72 |     66530    |    86626
        5  | 19:15.02 |  5:43.22 |     86627    |   112373
        6  | 24:58.24 |  2:00.50 |    112374    |   121423
        7  | 26:58.74 |  3:48.11 |    121424    |   138534
        8  | 30:47.10 |  4:57.49 |    138535    |   160858
        9  | 35:44.59 |  4:43.72 |    160859    |   182155
       10  | 40:28.56 |  4:33.69 |    182156    |   202699
       11  | 45:02.50 |  5:30.68 |    202700    |   227517
       12  | 50:33.43 |  1:41.00 |    227518    |   235092
Track  1
     Filename I:\Audio\Tamtrum - Some Atomik Songz\Tracks\01. Cyanide Regime - Rosarium.wav
     Pre-gap length  0:00:02.00
     Peak level 97.7 %
     Track quality 100.0 %
     Test CRC 05F08BF9
     Copy CRC 05F08BF9
     Track not present in AccurateRip database
     Copy OK
Track  2
     Filename I:\Audio\Tamtrum - Some Atomik Songz\Tracks\02. Cyanide Regime - Vanquisher.wav
     Peak level 97.7 %
     Track quality 100.0 %
     Test CRC 7E31C470
     Copy CRC 7E31C470
     Track not present in AccurateRip database
     Copy OK
Track  3
     Filename I:\Audio\Tamtrum - Some Atomik Songz\Tracks\03. Cyanide Regime - Prevail.wav
     Peak level 97.7 %
     Track quality 100.0 %
     Test CRC 8871DF59
     Copy CRC 8871DF59
     Track not present in AccurateRip database
     Copy OK
Track  4
     Filename I:\Audio\Tamtrum - Some Atomik Songz\Tracks\04. Cyanide Regime - Die bitch.wav
     Peak level 97.7 %
     Track quality 99.9 %
     Test CRC 18D820BB
     Copy CRC 18D820BB
     Track not present in AccurateRip database
     Copy OK
Track  5
     Filename I:\Audio\Tamtrum - Some Atomik Songz\Tracks\05. Cyanide Regime - Memorial.wav
     Peak level 97.7 %
     Track quality 100.0 %
     Test CRC 049CB960
     Copy CRC 049CB960
     Track not present in AccurateRip database
     Copy OK
Track  6
     Filename I:\Audio\Tamtrum - Some Atomik Songz\Tracks\06. Cyanide Regime - Imperio.wav
     Peak level 97.7 %
     Track quality 100.0 %
     Test CRC 70B2B5DE
     Copy CRC 70B2B5DE
     Track not present in AccurateRip database
     Copy OK
Track  7
     Filename I:\Audio\Tamtrum - Some Atomik Songz\Tracks\07. Cyanide Regime - Heartless.wav
     Peak level 97.7 %
     Track quality 99.9 %
     Test CRC DDF94E21
     Copy CRC DDF94E21
     Track not present in AccurateRip database
     Copy OK
Track  8
     Filename I:\Audio\Tamtrum - Some Atomik Songz\Tracks\08. Cyanide Regime - Crucificado.wav
     Peak level 97.7 %
     Track quality 100.0 %
     Test CRC C81CDF45
     Copy CRC C81CDF45
     Track not present in AccurateRip database
     Copy OK
Track  9
     Filename I:\Audio\Tamtrum - Some Atomik Songz\Tracks\09. Cyanide Regime - Apathy.wav
     Peak level 97.7 %
     Track quality 100.0 %
     Test CRC BD6842BC
     Copy CRC BD6842BC
     Track not present in AccurateRip database
     Copy OK
Track 10
     Filename I:\Audio\Tamtrum - Some Atomik Songz\Tracks\10. Cyanide Regime - The threat.wav
     Peak level 97.7 %
     Track quality 99.9 %
     Test CRC A593DF71
     Copy CRC A593DF71
     Track not present in AccurateRip database
     Copy OK
Track 11
     Filename I:\Audio\Tamtrum - Some Atomik Songz\Tracks\11. Cyanide Regime - Revenge.wav
     Peak level 97.7 %
     Track quality 100.0 %
     Test CRC C6DBADCC
     Copy CRC C6DBADCC
     Track not present in AccurateRip database
     Copy OK
Track 12
     Filename I:\Audio\Tamtrum - Some Atomik Songz\Tracks\12. Cyanide Regime - Plegaria.wav
     Peak level 97.7 %
     Track quality 100.0 %
     Test CRC 81E3056C
     Copy CRC 81E3056C
     Track not present in AccurateRip database
     Copy OK
None of the tracks are present in the AccurateRip database
No errors occurred
End of status report
Код:
REM GENRE Industrial
REM DATE 2007
REM DISCID 9C0C3E0C
REM COMMENT "ExactAudioCopy v0.99pb5"
PERFORMER "Cyanide Regime"
TITLE "Visions of Order"
FILE "01. Cyanide Regime - Rosarium.wav" WAVE
  TRACK 01 AUDIO
    TITLE "Rosarium"
    PERFORMER "Cyanide Regime"
    INDEX 01 00:00:00
FILE "02. Cyanide Regime - Vanquisher.wav" WAVE
  TRACK 02 AUDIO
    TITLE "Vanquisher"
    PERFORMER "Cyanide Regime"
    INDEX 01 00:00:00
FILE "03. Cyanide Regime - Prevail.wav" WAVE
  TRACK 03 AUDIO
    TITLE "Prevail"
    PERFORMER "Cyanide Regime"
    INDEX 01 00:00:00
FILE "04. Cyanide Regime - Die bitch.wav" WAVE
  TRACK 04 AUDIO
    TITLE "Die bitch"
    PERFORMER "Cyanide Regime"
    INDEX 01 00:00:00
FILE "05. Cyanide Regime - Memorial.wav" WAVE
  TRACK 05 AUDIO
    TITLE "Memorial"
    PERFORMER "Cyanide Regime"
    INDEX 01 00:00:00
FILE "06. Cyanide Regime - Imperio.wav" WAVE
  TRACK 06 AUDIO
    TITLE "Imperio"
    PERFORMER "Cyanide Regime"
    INDEX 01 00:00:00
FILE "07. Cyanide Regime - Heartless.wav" WAVE
  TRACK 07 AUDIO
    TITLE "Heartless"
    PERFORMER "Cyanide Regime"
    INDEX 01 00:00:00
FILE "08. Cyanide Regime - Crucificado.wav" WAVE
  TRACK 08 AUDIO
    TITLE "Crucificado"
    PERFORMER "Cyanide Regime"
    INDEX 01 00:00:00
FILE "09. Cyanide Regime - Apathy.wav" WAVE
  TRACK 09 AUDIO
    TITLE "Apathy"
    PERFORMER "Cyanide Regime"
    INDEX 01 00:00:00
FILE "10. Cyanide Regime - The threat.wav" WAVE
  TRACK 10 AUDIO
    TITLE "The threat"
    PERFORMER "Cyanide Regime"
    INDEX 01 00:00:00
FILE "11. Cyanide Regime - Revenge.wav" WAVE
  TRACK 11 AUDIO
    TITLE "Revenge"
    PERFORMER "Cyanide Regime"
    INDEX 01 00:00:00
FILE "12. Cyanide Regime - Plegaria.wav" WAVE
  TRACK 12 AUDIO
    TITLE "Plegaria"
    PERFORMER "Cyanide Regime"
    INDEX 01 00:00:00
Правила, инструкции, FAQ!!!
Торрент  Добавлен [26 июн 2020, 17:15] Скачать торрент Магнет ссылка
Скачать торрент
[ Размер 15.95 КБ / Просмотров 9 ]

Статус
Проверен 
 
Размер  364.56 МБ
Приватный: Нет (DHT включён)
.torrent скачан  0
 


     Отправить личное сообщение
   
Страница 1 из 1
Показать сообщения за:  Поле сортировки  
Начать новую тему Ответить на тему


Сейчас этот форум просматривают: нет зарегистрированных пользователей и гости: 0


Вы не можете начинать темы
Вы не можете отвечать на сообщения
Вы не можете редактировать свои сообщения
Вы не можете удалять свои сообщения
Вы не можете добавлять вложения

Перейти:  
cron