Начать новую тему Ответить на тему
Статистика раздачи
Размер: 378.66 МБ | Добавлен: 26 июн 2020, 17:20 | Скачали: 0
Сидеров: 0  [0 байт/сек]    Личеров: 0  [0 байт/сек]
Пред. тема | След. тема 

Автор
Сообщение

СообщениеДобавлено: 26 июн 2020, 17:20 

Ответить с цитатой 

Cyan - Fiction
Жанр: Electro / Industrial
Год выпуска диска: 1998
Производитель диска: Germany
Аудио кодек: APE
Тип рипа: image+.cue
Битрейт аудио: lossless
Продолжительность: 54:19
Трэклист:
1 New God Is Born (4:44)
2 Balance (4:57)
3 Die Vögel (5:26)
4 World Like Sand (5:17)
5 Mission: Detail (4:07)
6 Tonightmare (3:36)
7 Weird Physical Object (4:53)
8 God Has Got A Gun (3:47)
9 Feel The Bite (3:27)
10 Science Fiction (4:03)
11 Underwater World (9:53)
Доп. информация: Off Beat; O-123
Distributor's (SPV) catalogue #: SPV CD 085-43022
Код:
Exact Audio Copy V0.99 prebeta 4 from 23. January 2008
EAC extraction logfile from 3. December 2008, 12:46
Cyan / Fiction
Used drive  : PIONEER DVD-RW  DVR-112D   Adapter: 1  ID: 1
Read mode               : Secure
Utilize accurate stream : Yes
Defeat audio cache      : Yes
Make use of C2 pointers : No
Read offset correction                      : 48
Overread into Lead-In and Lead-Out          : No
Fill up missing offset samples with silence : Yes
Delete leading and trailing silent blocks   : No
Null samples used in CRC calculations       : Yes
Used interface                              : Installed external ASPI interface
Used output format : Internal WAV Routines
Sample format      : 44.100 Hz; 16 Bit; Stereo
TOC of the extracted CD
     Track |   Start  |  Length  | Start sector | End sector
    ---------------------------------------------------------
        1  |  0:00.00 |  4:44.47 |         0  |       21346
        2  |  4:44.47 |  4:57.55 |     21347  |       43676
        3  |  9:42.27 |  5:27.15 |     43677  |       68216
        4  | 15:09.42 |  5:17.63 |     68217  |       92054
        5  | 20:27.30 |  4:08.12 |     92055  |      110666
        6  | 24:35.42 |  3:36.35 |    110667  |      126901
        7  | 28:12.02 |  4:54.00 |    126902  |      148951
        8  | 33:06.02 |  3:48.03 |    148952  |      166054
        9  | 36:54.05 |  3:27.22 |    166055  |      181601
       10  | 40:21.27 |  4:03.25 |    181602  |      199851
       11  | 44:24.52 |  9:54.23 |    199852  |      244424
Range status and errors
Selected range
   Filename J:\Cyan - Fiction\CDImage.wav
   Peak level 100.0 %
   Range quality 100.0 %
   Test CRC F93CE372
   Copy CRC F93CE372
   Copy OK
No errors occurred
AccurateRip summary
Track  1  not present in database
Track  2  not present in database
Track  3  not present in database
Track  4  not present in database
Track  5  not present in database
Track  6  not present in database
Track  7  not present in database
Track  8  not present in database
Track  9  not present in database
Track 10  not present in database
Track 11  not present in database
None of the tracks are present in the AccurateRip database
End of status report
Код:
AUDIOCHECKER v2.0 beta (build 457) - by Dester - opdester@freemail.hu
~~~~~~~~~~~~~~~~~~~~~~~~~~~~~~~~~~
-=== DO NOT EDIT THIS FILE! ===-
Path: ...\Cyan - Fiction
01 -=- CDImage.wav -=- CDDA (100%)
190127764
Понравилась раздача? Нажми на кнопочку "Спасибо", а также плюсони мне в репутацию
Правила, инструкции, FAQ!!!
Торрент  Добавлен [26 июн 2020, 17:20] Скачать торрент Магнет ссылка
Скачать торрент
[ Размер 15.67 КБ / Просмотров 7 ]

Статус
Проверен 
 
Размер  378.66 МБ
Приватный: Нет (DHT включён)
.torrent скачан  0
 


     Отправить личное сообщение
   
Страница 1 из 1
Показать сообщения за:  Поле сортировки  
Начать новую тему Ответить на тему


Сейчас этот форум просматривают: нет зарегистрированных пользователей и гости: 0


Вы не можете начинать темы
Вы не можете отвечать на сообщения
Вы не можете редактировать свои сообщения
Вы не можете удалять свои сообщения
Вы не можете добавлять вложения

Перейти:  
cron