Начать новую тему Ответить на тему
Статистика раздачи
Размер: 419.08 МБ | Добавлен: 26 июн 2020, 17:11 | Скачали: 0
Сидеров: 0  [0 байт/сек]    Личеров: 0  [0 байт/сек]
Пред. тема | След. тема 

Автор
Сообщение

СообщениеДобавлено: 26 июн 2020, 17:11 

Ответить с цитатой 

Cruciform Injection / Aftermath
Жанр: Electro, Industrial
Страна-производитель диска: US
Год издания диска: 2006
Издатель (лейбл): Negative Gain Productions
Номер по каталогу: NGP80205
Страна: US
Аудио кодек: FLAC (*.flac)
Тип рипа: tracks+.cue
Битрейт аудио: lossless
Продолжительность: 59:28
Источник (релизер): CD-R
Наличие сканов в содержимом раздачи: нет
Треклист:
1 Intro 2:21
2 Replaced 4:42
3 Venus Corpse 4:35
4 Raise Your Flags 5:27
5 Dreaming Siren 4:55
6 Do Svi Danya 4:23
7 Every Mans Sin 3:58
8 Sugarbomb 3:55
9 Deadline 4:30
10 Black Mask Icon 4:12
11 Corridor 12 3:37
12 Embryonic Testaments (Still Born Mix) 4:52
13 Black Tides (Crashing Down Mix) 3:41
14 Deadline (Y4 VS CI) 4:11
Код:
Exact Audio Copy V0.99 prebeta 5 from 4. May 2009
EAC extraction logfile from 23. November 2010, 22:00
Cruciform Injection / Aftermath
Used drive  : PIONEER DVD-RW  DVR-216D   Adapter: 0  ID: 0
Read mode               : Secure
Utilize accurate stream : Yes
Defeat audio cache      : Yes
Make use of C2 pointers : No
Read offset correction                      : 96
Overread into Lead-In and Lead-Out          : No
Fill up missing offset samples with silence : Yes
Delete leading and trailing silent blocks   : No
Null samples used in CRC calculations       : Yes
Used interface                              : Native Win32 interface for Win NT & 2000
Gap handling                                : Appended to previous track
Used output format              : User Defined Encoder
Selected bitrate                : 1024 kBit/s
Quality                         : High
Add ID3 tag                     : No
Command line compressor         : C:\Program Files (x86)\Exact Audio Copy\Flac\flac.exe
Additional command line options : -8 -V -T "ARTIST=%a" -T "TITLE=%t" -T "ALBUM=%g" -T "DATE=%y" -T "TRACKNUMBER=%n" -T "GENRE=%m" -T "COMMENT=EAC FLAC -8" %s
TOC of the extracted CD
     Track |   Start  |  Length  | Start sector | End sector
    ---------------------------------------------------------
        1  |  0:00.00 |  2:21.41 |         0    |    10615
        2  |  2:21.41 |  4:42.53 |     10616    |    31818
        3  |  7:04.19 |  4:35.72 |     31819    |    52515
        4  | 11:40.16 |  5:27.48 |     52516    |    77088
        5  | 17:07.64 |  4:55.41 |     77089    |    99254
        6  | 22:03.30 |  4:23.64 |     99255    |   119043
        7  | 26:27.19 |  3:58.32 |    119044    |   136925
        8  | 30:25.51 |  3:55.45 |    136926    |   154595
        9  | 34:21.21 |  4:30.73 |    154596    |   174918
       10  | 38:52.19 |  4:12.04 |    174919    |   193822
       11  | 43:04.23 |  3:37.29 |    193823    |   210126
       12  | 46:41.52 |  4:52.52 |    210127    |   232078
       13  | 51:34.29 |  3:41.54 |    232079    |   248707
       14  | 55:16.08 |  4:11.38 |    248708    |   267570
Track  1
     Filename I:\Audio\TORRENTS\Cruciform Injection\tracks\ 01. Cruciform Injection – Intro.wav
     Pre-gap length  0:00:02.00
     Peak level 99.9 %
     Track quality 100.0 %
     Test CRC 9A3BE60A
     Copy CRC 9A3BE60A
     Cannot be verified as accurate (confidence 2)  [AC1C16C4], AccurateRip returned [22356DDF]
     Copy OK
Track  2
     Filename I:\Audio\TORRENTS\Cruciform Injection\tracks\ 02. Cruciform Injection – Replaced.wav
     Peak level 99.9 %
     Track quality 100.0 %
     Test CRC 04DA87BC
     Copy CRC 04DA87BC
     Cannot be verified as accurate (confidence 2)  [3957F6CE], AccurateRip returned [9C7A8D0E]
     Copy OK
Track  3
     Filename I:\Audio\TORRENTS\Cruciform Injection\tracks\ 03. Cruciform Injection – Venus Corpse.wav
     Peak level 99.7 %
     Track quality 99.9 %
     Test CRC 56578571
     Copy CRC 56578571
     Cannot be verified as accurate (confidence 2)  [59B47274], AccurateRip returned [B93F586E]
     Copy OK
Track  4
     Filename I:\Audio\TORRENTS\Cruciform Injection\tracks\ 04. Cruciform Injection – Raise Your Flags.wav
     Peak level 99.9 %
     Track quality 100.0 %
     Test CRC 5CDB6877
     Copy CRC 5CDB6877
     Cannot be verified as accurate (confidence 2)  [458A9D54], AccurateRip returned [D6B0A358]
     Copy OK
Track  5
     Filename I:\Audio\TORRENTS\Cruciform Injection\tracks\ 05. Cruciform Injection – Dreaming Siren.wav
     Peak level 98.8 %
     Track quality 99.9 %
     Test CRC 1B9975A4
     Copy CRC 1B9975A4
     Cannot be verified as accurate (confidence 2)  [D0703A3E], AccurateRip returned [07B0D81A]
     Copy OK
Track  6
     Filename I:\Audio\TORRENTS\Cruciform Injection\tracks\ 06. Cruciform Injection – Do Svi Danya.wav
     Peak level 99.9 %
     Track quality 100.0 %
     Test CRC 2B5D3CE5
     Copy CRC 2B5D3CE5
     Cannot be verified as accurate (confidence 2)  [15E5501A], AccurateRip returned [8B730F66]
     Copy OK
Track  7
     Filename I:\Audio\TORRENTS\Cruciform Injection\tracks\ 07. Cruciform Injection – Every Man's Sin.wav
     Peak level 98.8 %
     Track quality 99.9 %
     Test CRC 23A7FC8D
     Copy CRC 23A7FC8D
     Cannot be verified as accurate (confidence 2)  [9F09FBAE], AccurateRip returned [A82EDA60]
     Copy OK
Track  8
     Filename I:\Audio\TORRENTS\Cruciform Injection\tracks\ 08. Cruciform Injection – Sugarbomb.wav
     Peak level 99.9 %
     Track quality 100.0 %
     Test CRC FA2D4388
     Copy CRC FA2D4388
     Cannot be verified as accurate (confidence 2)  [1D9FFAC6], AccurateRip returned [8A6A2B32]
     Copy OK
Track  9
     Filename I:\Audio\TORRENTS\Cruciform Injection\tracks\ 09. Cruciform Injection – Deadline.wav
     Peak level 99.9 %
     Track quality 99.9 %
     Test CRC 1432CA75
     Copy CRC 1432CA75
     Cannot be verified as accurate (confidence 2)  [60DEC407], AccurateRip returned [6E5F179F]
     Copy OK
Track 10
     Filename I:\Audio\TORRENTS\Cruciform Injection\tracks\ 10. Cruciform Injection – Black Mask Icon.wav
     Peak level 99.9 %
     Track quality 100.0 %
     Test CRC 9C1F8F39
     Copy CRC 9C1F8F39
     Cannot be verified as accurate (confidence 2)  [22A8AF01], AccurateRip returned [DD2DA547]
     Copy OK
Track 11
     Filename I:\Audio\TORRENTS\Cruciform Injection\tracks\ 11. Cruciform Injection – Corridor.wav
     Peak level 99.9 %
     Track quality 100.0 %
     Test CRC 63B86A55
     Copy CRC 63B86A55
     Cannot be verified as accurate (confidence 2)  [316ACA37], AccurateRip returned [4E8394BF]
     Copy OK
Track 12
     Filename I:\Audio\TORRENTS\Cruciform Injection\tracks\ 12. Cruciform Injection – Embryonic Testaments (Still Born Mix).wav
     Peak level 99.8 %
     Track quality 100.0 %
     Test CRC A6394078
     Copy CRC A6394078
     Cannot be verified as accurate (confidence 2)  [06F8BD6D], AccurateRip returned [D27BA5D5]
     Copy OK
Track 13
     Filename I:\Audio\TORRENTS\Cruciform Injection\tracks\ 13. Cruciform Injection – Black Tides (Crashing Down Mix).wav
     Peak level 97.7 %
     Track quality 100.0 %
     Test CRC C96FA2D5
     Copy CRC C96FA2D5
     Cannot be verified as accurate (confidence 2)  [AE024662], AccurateRip returned [80AEFE38]
     Copy OK
Track 14
     Filename I:\Audio\TORRENTS\Cruciform Injection\tracks\ 14. Cruciform Injection – Deadline (Y4 VS CI).wav
     Peak level 99.9 %
     Track quality 100.0 %
     Test CRC DF239348
     Copy CRC DF239348
     Cannot be verified as accurate (confidence 2)  [AF0928F8], AccurateRip returned [EAF34F7D]
     Copy OK
No tracks could be verified as accurate
You may have a different pressing from the one(s) in the database
No errors occurred
End of status report
Код:
REM GENRE Electro-Industrial
REM DATE 2006
REM DISCID B90DEF0E
REM COMMENT "ExactAudioCopy v0.99pb5"
PERFORMER "Cruciform Injection"
TITLE "Aftermath"
FILE " 01. Cruciform Injection – Intro.wav" WAVE
  TRACK 01 AUDIO
    TITLE "Intro"
    PERFORMER "Cruciform Injection"
    INDEX 01 00:00:00
FILE " 02. Cruciform Injection – Replaced.wav" WAVE
  TRACK 02 AUDIO
    TITLE "Replaced"
    PERFORMER "Cruciform Injection"
    INDEX 01 00:00:00
FILE " 03. Cruciform Injection – Venus Corpse.wav" WAVE
  TRACK 03 AUDIO
    TITLE "Venus Corpse"
    PERFORMER "Cruciform Injection"
    INDEX 01 00:00:00
FILE " 04. Cruciform Injection – Raise Your Flags.wav" WAVE
  TRACK 04 AUDIO
    TITLE "Raise Your Flags"
    PERFORMER "Cruciform Injection"
    INDEX 01 00:00:00
FILE " 05. Cruciform Injection – Dreaming Siren.wav" WAVE
  TRACK 05 AUDIO
    TITLE "Dreaming Siren"
    PERFORMER "Cruciform Injection"
    INDEX 01 00:00:00
FILE " 06. Cruciform Injection – Do Svi Danya.wav" WAVE
  TRACK 06 AUDIO
    TITLE "Do Svi Danya"
    PERFORMER "Cruciform Injection"
    INDEX 01 00:00:00
FILE " 07. Cruciform Injection – Every Man's Sin.wav" WAVE
  TRACK 07 AUDIO
    TITLE "Every Man's Sin"
    PERFORMER "Cruciform Injection"
    INDEX 01 00:00:00
FILE " 08. Cruciform Injection – Sugarbomb.wav" WAVE
  TRACK 08 AUDIO
    TITLE "Sugarbomb"
    PERFORMER "Cruciform Injection"
    INDEX 01 00:00:00
FILE " 09. Cruciform Injection – Deadline.wav" WAVE
  TRACK 09 AUDIO
    TITLE "Deadline"
    PERFORMER "Cruciform Injection"
    INDEX 01 00:00:00
FILE " 10. Cruciform Injection – Black Mask Icon.wav" WAVE
  TRACK 10 AUDIO
    TITLE "Black Mask Icon"
    PERFORMER "Cruciform Injection"
    INDEX 01 00:00:00
FILE " 11. Cruciform Injection – Corridor.wav" WAVE
  TRACK 11 AUDIO
    TITLE "Corridor"
    PERFORMER "Cruciform Injection"
    INDEX 01 00:00:00
FILE " 12. Cruciform Injection – Embryonic Testaments (Still Born Mix).wav" WAVE
  TRACK 12 AUDIO
    TITLE "Embryonic Testaments (Still Born Mix)"
    PERFORMER "Cruciform Injection"
    INDEX 01 00:00:00
FILE " 13. Cruciform Injection – Black Tides (Crashing Down Mix).wav" WAVE
  TRACK 13 AUDIO
    TITLE "Black Tides (Crashing Down Mix)"
    PERFORMER "Cruciform Injection"
    INDEX 01 00:00:00
FILE " 14. Cruciform Injection – Deadline (Y4 VS CI).wav" WAVE
  TRACK 14 AUDIO
    TITLE "Deadline (Y4 VS CI)"
    PERFORMER "Cruciform Injection"
    INDEX 01 00:00:00
Код:
Started at: вторник, 23. 11. 2010. - 21:14.07
14 files found
01 -===- track 1 in drive PIONEER DVD-RW  DVR-216D
  Track ripped successfully
  Conclusion: this track is CDDA with probability 100%
  Tempfile successfully deleted.
02 -===- track 2 in drive PIONEER DVD-RW  DVR-216D
  Track ripped successfully
  Conclusion: this track is CDDA with probability 100%
  Tempfile successfully deleted.
03 -===- track 3 in drive PIONEER DVD-RW  DVR-216D
  Track ripped successfully
  Conclusion: this track is CDDA with probability 100%
  Tempfile successfully deleted.
04 -===- track 4 in drive PIONEER DVD-RW  DVR-216D
  Track ripped successfully
  Conclusion: this track is CDDA with probability 100%
  Tempfile successfully deleted.
05 -===- track 5 in drive PIONEER DVD-RW  DVR-216D
  Track ripped successfully
  Conclusion: this track is CDDA with probability 100%
  Tempfile successfully deleted.
06 -===- track 6 in drive PIONEER DVD-RW  DVR-216D
  Track ripped successfully
  Conclusion: this track is CDDA with probability 100%
  Tempfile successfully deleted.
07 -===- track 7 in drive PIONEER DVD-RW  DVR-216D
  Track ripped successfully
  Conclusion: this track is CDDA with probability 100%
  Tempfile successfully deleted.
08 -===- track 8 in drive PIONEER DVD-RW  DVR-216D
  Track ripped successfully
  Conclusion: this track is CDDA with probability 100%
  Tempfile successfully deleted.
09 -===- track 9 in drive PIONEER DVD-RW  DVR-216D
  Track ripped successfully
  Conclusion: this track is CDDA with probability 100%
  Tempfile successfully deleted.
10 -===- track 10 in drive PIONEER DVD-RW  DVR-216D
  Track ripped successfully
  Conclusion: this track is CDDA with probability 100%
  Tempfile successfully deleted.
11 -===- track 11 in drive PIONEER DVD-RW  DVR-216D
  Track ripped successfully
  Conclusion: this track is CDDA with probability 100%
  Tempfile successfully deleted.
12 -===- track 12 in drive PIONEER DVD-RW  DVR-216D
  Track ripped successfully
  Conclusion: this track is CDDA with probability 100%
  Tempfile successfully deleted.
13 -===- track 13 in drive PIONEER DVD-RW  DVR-216D
  Track ripped successfully
  Conclusion: this track is CDDA with probability 100%
  Tempfile successfully deleted.
14 -===- track 14 in drive PIONEER DVD-RW  DVR-216D
  Track ripped successfully
  Conclusion: this track is CDDA with probability 100%
  Tempfile successfully deleted.
Finished at: вторник, 23. 11. 2010. - 21:24.20 (operation time: 0:10.13)


Доп. информация: http://www.discogs.com/Cruciform-Injection-Aftermath/release/799682
http://www.myspace.com/cruciforminjection
http://www.cruciforminjection.com/
Правила, инструкции, FAQ!!!
Торрент  Добавлен [26 июн 2020, 17:11] Скачать торрент Магнет ссылка
Скачать торрент
[ Размер 18.48 КБ / Просмотров 4 ]

Статус
Проверен 
 
Размер  419.08 МБ
Приватный: Нет (DHT включён)
.torrent скачан  0
 


     Отправить личное сообщение
   
Страница 1 из 1
Показать сообщения за:  Поле сортировки  
Начать новую тему Ответить на тему


Сейчас этот форум просматривают: нет зарегистрированных пользователей и гости: 0


Вы не можете начинать темы
Вы не можете отвечать на сообщения
Вы не можете редактировать свои сообщения
Вы не можете удалять свои сообщения
Вы не можете добавлять вложения

Перейти:  
cron