Начать новую тему Ответить на тему
Статистика раздачи
Размер: 475.28 МБ | Добавлен: 26 июн 2020, 17:06 | Скачали: 0
Сидеров: 0  [0 байт/сек]    Личеров: 0  [0 байт/сек]
Пред. тема | След. тема 

Автор
Сообщение

СообщениеДобавлено: 26 июн 2020, 17:06 

Ответить с цитатой 

Control.org / Manipulate
#777Жанр: electro industrial
Страна-производитель диска: USA
Год издания: 2001
Издатель (лейбл): DSBP Records
Номер по каталогу: DSBP#1038
Аудиокодек: FLAC (*.flac)
Тип рипа: image+.cue
Битрейт аудио: lossless
Продолжительность: 1:07:54.12
Источник (релизер): Физический носитель
Наличие сканов в содержимом раздачи: да
Треклист:
01. Visions [4:38]
02. Nov21 [4:36]
03. Captor (Voices mix) [4:32]
04. Evil Genius [3:22]
05. Disease [4:59]
06. Take It Away [3:50]
07. Retribution [4:14]
08. Into You [5:26]
09. Force Fed [4:33]
10. Union [4:29]
11. Captor [5:19]
12. Manipulator [5:21]
13. Evil Genius (Glow mix) [4:33]
14. Take It Away (Control Freak mix) [3:48]
15. The Last Sigh [4:14]
Код:
Exact Audio Copy V1.0 beta 3 from 29. August 2011
Отчёт EAC об извлечении, выполненном 23. сентября 2012, 7:56
Control.org / Manipulate
Дисковод: PIONEER DVD-RW  DVR-XD10   Adapter: 3  ID: 0
Режим чтения                 : Достоверность
Использование точного потока : Да
Отключение кэша аудио        : Да
Использование указателей C2  : Нет
Коррекция смещения при чтении                     : 96
Способность читать области Lead-in и Lead-out     : Нет
Заполнение пропущенных сэмплов тишиной            : Да
Удаление блоков с тишиной в начале и конце        : Нет
При вычислениях CRC использовались нулевые сэмплы : Да
Интерфейс                                         : Встроенный Win32-интерфейс для Win NT/2000
Выходной формат          : Пользовательский кодировщик
Выбранный битрейт        : 1024 kBit/s
Качество                 : Высокий
Добавление ID3-тега      : Нет
Утилита сжатия           : C:\Program Files\Exact Audio Copy\FLAC\FLAC.EXE
Дополнительные параметры : -6 -V -T "Date=%year%" -T "Genre=%genre%" %source%
TOC извлечённого CD
     Трек |   Старт  | Длительность | Начальный сектор | Конечный сектор
    ---------------------------------------------------------------------
       1  |  0:00.00 |    4:38.18   |           0      |      20867
       2  |  4:38.18 |    4:35.57   |       20868      |      41549
       3  |  9:14.00 |    4:32.36   |       41550      |      61985
       4  | 13:46.36 |    3:21.72   |       61986      |      77132
       5  | 17:08.33 |    4:58.50   |       77133      |      99532
       6  | 22:07.08 |    3:50.15   |       99533      |     116797
       7  | 25:57.23 |    4:14.18   |      116798      |     135865
       8  | 30:11.41 |    5:26.01   |      135866      |     160316
       9  | 35:37.42 |    4:32.63   |      160317      |     180779
      10  | 40:10.30 |    4:29.06   |      180780      |     200960
      11  | 44:39.36 |    5:18.55   |      200961      |     224865
      12  | 49:58.16 |    5:20.47   |      224866      |     248912
      13  | 55:18.63 |    4:32.66   |      248913      |     269378
      14  | 59:51.54 |    3:48.27   |      269379      |     286505
      15  | 63:40.06 |    4:14.06   |      286506      |     305561
Характеристики диапазона извлечения и сообщения об ошибках
Выбранный диапазон
     Имя файла C:\Documents and Settings\Наташка\Рабочий стол\Control.org - Manipulate.wav
     Пиковый уровень 100.0 %
     Скорость извлечения 2.5 X
     Качество диапазона 100.0 %
     CRC теста FD7706FD
     CRC копии FD7706FD
     Копирование... OK
Ошибок не произошло
AccurateRip: сводка
Трек  1  отсутствует в базе данных
Трек  2  отсутствует в базе данных
Трек  3  отсутствует в базе данных
Трек  4  отсутствует в базе данных
Трек  5  отсутствует в базе данных
Трек  6  отсутствует в базе данных
Трек  7  отсутствует в базе данных
Трек  8  отсутствует в базе данных
Трек  9  отсутствует в базе данных
Трек 10  отсутствует в базе данных
Трек 11  отсутствует в базе данных
Трек 12  отсутствует в базе данных
Трек 13  отсутствует в базе данных
Трек 14  отсутствует в базе данных
Трек 15  отсутствует в базе данных
Ни одного трека нет в базе AccurateRip
Конец отчёта
==== Контрольная сумма отчёта 79CAA7E2B80D3478911360C5A64BBA21530619CAA27EE55F86BE370E8BF9C37C ====
Правила, инструкции, FAQ!!!
Торрент  Добавлен [26 июн 2020, 17:06] Скачать торрент Магнет ссылка
Скачать торрент
[ Размер 19.45 КБ / Просмотров 4 ]

Статус
Проверен 
 
Размер  475.28 МБ
Приватный: Нет (DHT включён)
.torrent скачан  0
 


     Отправить личное сообщение
   
Страница 1 из 1
Показать сообщения за:  Поле сортировки  
Начать новую тему Ответить на тему


Сейчас этот форум просматривают: нет зарегистрированных пользователей и гости: 0


Вы не можете начинать темы
Вы не можете отвечать на сообщения
Вы не можете редактировать свои сообщения
Вы не можете удалять свои сообщения
Вы не можете добавлять вложения

Перейти:  
cron